  0
SECTION
  2
HEADER
  9
$ACADVER
  1
AC1027
  9
$ACADMAINTVER
 70
    55
  9
$DWGCODEPAGE
  3
ANSI_936
  9
$LASTSAVEDBY
  1
LI
  9
$REQUIREDVERSIONS
160
                 0
  9
$INSBASE
 10
0.0
 20
0.0
 30
0.0
  9
$EXTMIN
 10
2220.762443203521
 20
-1347.125585450317
 30
0.0
  9
$EXTMAX
 10
2569.829393215459
 20
-1062.754217066912
 30
0.0
  9
$LIMMIN
 10
0.0
 20
0.0
  9
$LIMMAX
 10
12.0
 20
9.0
  9
$ORTHOMODE
 70
     0
  9
$REGENMODE
 70
     1
  9
$FILLMODE
 70
     1
  9
$QTEXTMODE
 70
     0
  9
$MIRRTEXT
 70
     1
  9
$LTSCALE
 40
1.0
  9
$ATTMODE
 70
     1
  9
$TEXTSIZE
 40
0.2
  9
$TRACEWID
 40
0.05
  9
$TEXTSTYLE
  7
Standard
  9
$CLAYER
  8
0
  9
$CELTYPE
  6
ByLayer
  9
$CECOLOR
 62
   256
  9
$CELTSCALE
 40
1.0
  9
$DISPSILH
 70
     0
  9
$DIMSCALE
 40
1.0
  9
$DIMASZ
 40
0.18
  9
$DIMEXO
 40
0.0625
  9
$DIMDLI
 40
0.38
  9
$DIMRND
 40
0.0
  9
$DIMDLE
 40
0.0
  9
$DIMEXE
 40
0.18
  9
$DIMTP
 40
0.0
  9
$DIMTM
 40
0.0
  9
$DIMTXT
 40
0.18
  9
$DIMCEN
 40
0.09
  9
$DIMTSZ
 40
0.0
  9
$DIMTOL
 70
     0
  9
$DIMLIM
 70
     0
  9
$DIMTIH
 70
     1
  9
$DIMTOH
 70
     1
  9
$DIMSE1
 70
     0
  9
$DIMSE2
 70
     0
  9
$DIMTAD
 70
     0
  9
$DIMZIN
 70
     0
  9
$DIMBLK
  1

  9
$DIMASO
 70
     1
  9
$DIMSHO
 70
     1
  9
$DIMPOST
  1

  9
$DIMAPOST
  1

  9
$DIMALT
 70
     0
  9
$DIMALTD
 70
     2
  9
$DIMALTF
 40
25.4
  9
$DIMLFAC
 40
1.0
  9
$DIMTOFL
 70
     0
  9
$DIMTVP
 40
0.0
  9
$DIMTIX
 70
     0
  9
$DIMSOXD
 70
     0
  9
$DIMSAH
 70
     0
  9
$DIMBLK1
  1

  9
$DIMBLK2
  1

  9
$DIMSTYLE
  2
Standard
  9
$DIMCLRD
 70
     0
  9
$DIMCLRE
 70
     0
  9
$DIMCLRT
 70
     0
  9
$DIMTFAC
 40
1.0
  9
$DIMGAP
 40
0.09
  9
$DIMJUST
 70
     0
  9
$DIMSD1
 70
     0
  9
$DIMSD2
 70
     0
  9
$DIMTOLJ
 70
     1
  9
$DIMTZIN
 70
     0
  9
$DIMALTZ
 70
     0
  9
$DIMALTTZ
 70
     0
  9
$DIMUPT
 70
     0
  9
$DIMDEC
 70
     4
  9
$DIMTDEC
 70
     4
  9
$DIMALTU
 70
     2
  9
$DIMALTTD
 70
     2
  9
$DIMTXSTY
  7
Standard
  9
$DIMAUNIT
 70
     0
  9
$DIMADEC
 70
     0
  9
$DIMALTRND
 40
0.0
  9
$DIMAZIN
 70
     0
  9
$DIMDSEP
 70
    46
  9
$DIMATFIT
 70
     3
  9
$DIMFRAC
 70
     0
  9
$DIMLDRBLK
  1

  9
$DIMLUNIT
 70
     2
  9
$DIMLWD
 70
    -2
  9
$DIMLWE
 70
    -2
  9
$DIMTMOVE
 70
     0
  9
$DIMFXL
 40
1.0
  9
$DIMFXLON
 70
     0
  9
$DIMJOGANG
 40
0.7853981633974483
  9
$DIMTFILL
 70
     0
  9
$DIMTFILLCLR
 70
     0
  9
$DIMARCSYM
 70
     0
  9
$DIMLTYPE
  6

  9
$DIMLTEX1
  6

  9
$DIMLTEX2
  6

  9
$DIMTXTDIRECTION
 70
     0
  9
$LUNITS
 70
     2
  9
$LUPREC
 70
     4
  9
$SKETCHINC
 40
0.1
  9
$FILLETRAD
 40
0.5
  9
$AUNITS
 70
     0
  9
$AUPREC
 70
     0
  9
$MENU
  1
.
  9
$ELEVATION
 40
0.0
  9
$PELEVATION
 40
0.0
  9
$THICKNESS
 40
0.0
  9
$LIMCHECK
 70
     0
  9
$CHAMFERA
 40
0.5
  9
$CHAMFERB
 40
0.5
  9
$CHAMFERC
 40
1.0
  9
$CHAMFERD
 40
0.0
  9
$SKPOLY
 70
     0
  9
$TDCREATE
 40
2456498.272154028
  9
$TDUCREATE
 40
2456497.938820695
  9
$TDUPDATE
 40
2457569.772213623
  9
$TDUUPDATE
 40
2457569.438880290
  9
$TDINDWG
 40
0.0023430556
  9
$TDUSRTIMER
 40
0.0023430556
  9
$USRTIMER
 70
     1
  9
$ANGBASE
 50
0.0
  9
$ANGDIR
 70
     0
  9
$PDMODE
 70
     0
  9
$PDSIZE
 40
0.0
  9
$PLINEWID
 40
0.0
  9
$SPLFRAME
 70
     0
  9
$SPLINETYPE
 70
     6
  9
$SPLINESEGS
 70
     8
  9
$HANDSEED
  5
79E
  9
$SURFTAB1
 70
     6
  9
$SURFTAB2
 70
     6
  9
$SURFTYPE
 70
     6
  9
$SURFU
 70
     6
  9
$SURFV
 70
     6
  9
$UCSBASE
  2

  9
$UCSNAME
  2

  9
$UCSORG
 10
0.0
 20
0.0
 30
0.0
  9
$UCSXDIR
 10
1.0
 20
0.0
 30
0.0
  9
$UCSYDIR
 10
0.0
 20
1.0
 30
0.0
  9
$UCSORTHOREF
  2

  9
$UCSORTHOVIEW
 70
     0
  9
$UCSORGTOP
 10
0.0
 20
0.0
 30
0.0
  9
$UCSORGBOTTOM
 10
0.0
 20
0.0
 30
0.0
  9
$UCSORGLEFT
 10
0.0
 20
0.0
 30
0.0
  9
$UCSORGRIGHT
 10
0.0
 20
0.0
 30
0.0
  9
$UCSORGFRONT
 10
0.0
 20
0.0
 30
0.0
  9
$UCSORGBACK
 10
0.0
 20
0.0
 30
0.0
  9
$PUCSBASE
  2

  9
$PUCSNAME
  2

  9
$PUCSORG
 10
0.0
 20
0.0
 30
0.0
  9
$PUCSXDIR
 10
1.0
 20
0.0
 30
0.0
  9
$PUCSYDIR
 10
0.0
 20
1.0
 30
0.0
  9
$PUCSORTHOREF
  2

  9
$PUCSORTHOVIEW
 70
     0
  9
$PUCSORGTOP
 10
0.0
 20
0.0
 30
0.0
  9
$PUCSORGBOTTOM
 10
0.0
 20
0.0
 30
0.0
  9
$PUCSORGLEFT
 10
0.0
 20
0.0
 30
0.0
  9
$PUCSORGRIGHT
 10
0.0
 20
0.0
 30
0.0
  9
$PUCSORGFRONT
 10
0.0
 20
0.0
 30
0.0
  9
$PUCSORGBACK
 10
0.0
 20
0.0
 30
0.0
  9
$USERI1
 70
     0
  9
$USERI2
 70
     0
  9
$USERI3
 70
     0
  9
$USERI4
 70
     0
  9
$USERI5
 70
     0
  9
$USERR1
 40
0.0
  9
$USERR2
 40
0.0
  9
$USERR3
 40
0.0
  9
$USERR4
 40
0.0
  9
$USERR5
 40
0.0
  9
$WORLDVIEW
 70
     1
  9
$SHADEDGE
 70
     3
  9
$SHADEDIF
 70
    70
  9
$TILEMODE
 70
     1
  9
$MAXACTVP
 70
    64
  9
$PINSBASE
 10
0.0
 20
0.0
 30
0.0
  9
$PLIMCHECK
 70
     0
  9
$PEXTMIN
 10
3.15713315299277
 20
2.209414789719573
 30
0.0
  9
$PEXTMAX
 10
200.3709444587095
 20
287.7561714473947
 30
0.0
  9
$PLIMMIN
 10
-3.174999952316284
 20
-3.174999952316284
  9
$PLIMMAX
 10
206.7983276844024
 20
293.8568298816681
  9
$UNITMODE
 70
     0
  9
$VISRETAIN
 70
     1
  9
$PLINEGEN
 70
     0
  9
$PSLTSCALE
 70
     1
  9
$TREEDEPTH
 70
  3020
  9
$CMLSTYLE
  2
Standard
  9
$CMLJUST
 70
     0
  9
$CMLSCALE
 40
1.0
  9
$PROXYGRAPHICS
 70
     1
  9
$MEASUREMENT
 70
     0
  9
$CELWEIGHT
370
    -1
  9
$ENDCAPS
280
     0
  9
$JOINSTYLE
280
     0
  9
$LWDISPLAY
290
     1
  9
$INSUNITS
 70
     4
  9
$HYPERLINKBASE
  1

  9
$STYLESHEET
  1

  9
$XEDIT
290
     1
  9
$CEPSNTYPE
380
     0
  9
$PSTYLEMODE
290
     1
  9
$FINGERPRINTGUID
  2
{A3D67A78-E0F2-4787-B2C8-BE7E4093DE93}
  9
$VERSIONGUID
  2
{FF4D94E5-0789-4CE0-9AEE-909699843417}
  9
$EXTNAMES
290
     1
  9
$PSVPSCALE
 40
0.0
  9
$OLESTARTUP
290
     0
  9
$SORTENTS
280
   127
  9
$INDEXCTL
280
     0
  9
$HIDETEXT
280
     1
  9
$XCLIPFRAME
280
     0
  9
$HALOGAP
280
     0
  9
$OBSCOLOR
 70
   257
  9
$OBSLTYPE
280
     0
  9
$INTERSECTIONDISPLAY
280
     0
  9
$INTERSECTIONCOLOR
 70
   257
  9
$DIMASSOC
280
     2
  9
$PROJECTNAME
  1

  9
$CAMERADISPLAY
290
     0
  9
$LENSLENGTH
 40
50.0
  9
$CAMERAHEIGHT
 40
0.0
  9
$STEPSPERSEC
 40
2.0
  9
$STEPSIZE
 40
6.0
  9
$3DDWFPREC
 40
2.0
  9
$PSOLWIDTH
 40
0.25
  9
$PSOLHEIGHT
 40
4.0
  9
$LOFTANG1
 40
1.570796326794896
  9
$LOFTANG2
 40
1.570796326794896
  9
$LOFTMAG1
 40
0.0
  9
$LOFTMAG2
 40
0.0
  9
$LOFTPARAM
 70
     7
  9
$LOFTNORMALS
280
     1
  9
$LATITUDE
 40
37.795
  9
$LONGITUDE
 40
-122.394
  9
$NORTHDIRECTION
 40
0.0
  9
$TIMEZONE
 70
 -8000
  9
$LIGHTGLYPHDISPLAY
280
     1
  9
$TILEMODELIGHTSYNCH
280
     1
  9
$CMATERIAL
347
3C
  9
$SOLIDHIST
280
     0
  9
$SHOWHIST
280
     1
  9
$DWFFRAME
280
     2
  9
$DGNFRAME
280
     0
  9
$REALWORLDSCALE
290
     1
  9
$INTERFERECOLOR
 62
     1
  9
$INTERFEREOBJVS
345
33
  9
$INTERFEREVPVS
346
199
  9
$CSHADOW
280
     0
  9
$SHADOWPLANELOCATION
 40
0.0
  0
ENDSEC
  0
SECTION
  2
CLASSES
  0
CLASS
  1
ACDBDICTIONARYWDFLT
  2
AcDbDictionaryWithDefault
  3
ObjectDBX Classes
 90
        0
 91
        1
280
     0
281
     0
  0
CLASS
  1
VISUALSTYLE
  2
AcDbVisualStyle
  3
ObjectDBX Classes
 90
     4095
 91
       26
280
     0
281
     0
  0
CLASS
  1
MATERIAL
  2
AcDbMaterial
  3
ObjectDBX Classes
 90
     1153
 91
        3
280
     0
281
     0
  0
CLASS
  1
SCALE
  2
AcDbScale
  3
ObjectDBX Classes
 90
     1153
 91
       33
280
     0
281
     0
  0
CLASS
  1
DICTIONARYVAR
  2
AcDbDictionaryVar
  3
ObjectDBX Classes
 90
        0
 91
        9
280
     0
281
     0
  0
CLASS
  1
TABLESTYLE
  2
AcDbTableStyle
  3
ObjectDBX Classes
 90
     4095
 91
        1
280
     0
281
     0
  0
CLASS
  1
MLEADERSTYLE
  2
AcDbMLeaderStyle
  3
ACDB_MLEADERSTYLE_CLASS
 90
     4095
 91
        1
280
     0
281
     0
  0
CLASS
  1
ACDBSECTIONVIEWSTYLE
  2
AcDbSectionViewStyle
  3
ObjectDBX Classes
 90
     1025
 91
        1
280
     0
281
     0
  0
CLASS
  1
ACDBDETAILVIEWSTYLE
  2
AcDbDetailViewStyle
  3
ObjectDBX Classes
 90
     1025
 91
        1
280
     0
281
     0
  0
CLASS
  1
EXACXREFPANELOBJECT
  2
ExAcXREFPanelObject
  3
EXAC_ESW
 90
     1025
 91
        0
280
     0
281
     0
  0
CLASS
  1
NPOCOLLECTION
  2
AcDbImpNonPersistentObjectsCollection
  3
ObjectDBX Classes
 90
     1153
 91
        0
280
     0
281
     0
  0
CLASS
  1
IMAGE
  2
AcDbRasterImage
  3
ISM
 90
     2175
 91
        1
280
     0
281
     1
  0
CLASS
  1
IMAGEDEF_REACTOR
  2
AcDbRasterImageDefReactor
  3
ISM
 90
        1
 91
        1
280
     0
281
     0
  0
CLASS
  1
IMAGEDEF
  2
AcDbRasterImageDef
  3
ISM
 90
        0
 91
        4
280
     0
281
     0
  0
CLASS
  1
RASTERVARIABLES
  2
AcDbRasterVariables
  3
ISM
 90
        0
 91
        1
280
     0
281
     0
  0
CLASS
  1
CELLSTYLEMAP
  2
AcDbCellStyleMap
  3
ObjectDBX Classes
 90
     1152
 91
        2
280
     0
281
     0
  0
ENDSEC
  0
SECTION
  2
TABLES
  0
TABLE
  2
VPORT
  5
8
330
0
100
AcDbSymbolTable
 70
     1
  0
VPORT
  5
29
330
8
100
AcDbSymbolTableRecord
100
AcDbViewportTableRecord
  2
*Active
 70
     0
 10
0.0
 20
0.0
 11
1.0
 21
1.0
 12
2456.186815502311
 22
-1208.965062687102
 13
0.0
 23
0.0
 14
0.5
 24
0.5
 15
0.5
 25
0.5
 16
0.0
 26
0.0
 36
1.0
 17
0.0
 27
0.0
 37
0.0
 40
337.3094750514056
 41
2.097014925373134
 42
50.0
 43
0.0
 44
0.0
 50
0.0
 51
0.0
 71
     0
 72
   100
 73
     1
 74
     3
 75
     0
 76
     0
 77
     0
 78
     0
281
     0
 65
     1
110
0.0
120
0.0
130
0.0
111
1.0
121
0.0
131
0.0
112
0.0
122
1.0
132
0.0
 79
     0
146
0.0
348
2F
 60
     3
 61
     5
292
     1
282
     1
141
0.0
142
0.0
 63
   250
421
  3355443
1001
ACAD_NAV_VCDISPLAY
1070
     3
  0
ENDTAB
  0
TABLE
  2
LTYPE
  5
5
330
0
100
AcDbSymbolTable
 70
     7
  0
LTYPE
  5
14
330
5
100
AcDbSymbolTableRecord
100
AcDbLinetypeTableRecord
  2
ByBlock
 70
     0
  3

 72
    65
 73
     0
 40
0.0
  0
LTYPE
  5
15
330
5
100
AcDbSymbolTableRecord
100
AcDbLinetypeTableRecord
  2
ByLayer
 70
     0
  3

 72
    65
 73
     0
 40
0.0
  0
LTYPE
  5
16
330
5
100
AcDbSymbolTableRecord
100
AcDbLinetypeTableRecord
  2
Continuous
 70
     0
  3
Solid line
 72
    65
 73
     0
 40
0.0
  0
LTYPE
  5
58
330
5
100
AcDbSymbolTableRecord
100
AcDbLinetypeTableRecord
  2
Building Wrap
 70
     0
  3
- - - - - 
 72
    65
 73
     2
 40
6.0
 49
4.0
 74
     0
 49
-2.0
 74
     0
  0
LTYPE
  5
5D
330
5
100
AcDbSymbolTableRecord
100
AcDbLinetypeTableRecord
  2
Building Wrap Tape
 70
     0
  3
- - - - - 
 72
    65
 73
     2
 40
3.0
 49
2.0
 74
     0
 49
-1.0
 74
     0
  0
LTYPE
  5
1A7
330
5
100
AcDbSymbolTableRecord
100
AcDbLinetypeTableRecord
  2
PHANTOM2
 70
     0
  3
Phantom (.5x) ___ _ _ ___ _ _ ___ _ _ ___ _ _
 72
    65
 73
     6
 40
1.25
 49
0.625
 74
     0
 49
-0.125
 74
     0
 49
0.125
 74
     0
 49
-0.125
 74
     0
 49
0.125
 74
     0
 49
-0.125
 74
     0
  0
LTYPE
  5
65D
330
5
100
AcDbSymbolTableRecord
100
AcDbLinetypeTableRecord
  2
Hidden
 70
     0
  3
- - - - - 
 72
    65
 73
     2
 40
2.0
 49
1.0
 74
     0
 49
-1.0
 74
     0
  0
LTYPE
  5
65E
330
5
100
AcDbSymbolTableRecord
100
AcDbLinetypeTableRecord
  2
Dashed
 70
     0
  3
- - - - - 
 72
    65
 73
     2
 40
6.0
 49
4.0
 74
     0
 49
-2.0
 74
     0
  0
ENDTAB
  0
TABLE
  2
LAYER
  5
2
102
{ACAD_XDICTIONARY
360
672
102
}
330
0
100
AcDbSymbolTable
 70
    21
  0
LAYER
  5
10
102
{ACAD_XDICTIONARY
360
6B4
102
}
330
2
100
AcDbSymbolTableRecord
100
AcDbLayerTableRecord
  2
0
 70
     0
 62
     7
  6
Continuous
370
    -3
390
F
347
3E
348
0
  0
LAYER
  5
40
102
{ACAD_XDICTIONARY
360
6B6
102
}
330
2
100
AcDbSymbolTableRecord
100
AcDbLayerTableRecord
  2
Fills_ Pattern_Pen_No__154
 70
     0
 62
   253
420
 10658466
  6
Continuous
370
    13
390
F
347
3E
348
0
  0
LAYER
  5
42
102
{ACAD_XDICTIONARY
360
6B8
102
}
330
2
100
AcDbSymbolTableRecord
100
AcDbLayerTableRecord
  2
Fills_ Pattern_Pen_No__153
 70
     0
 62
     9
420
 12171705
  6
Continuous
370
    13
390
F
347
3E
348
0
  0
LAYER
  5
43
102
{ACAD_XDICTIONARY
360
6BA
102
}
330
2
100
AcDbSymbolTableRecord
100
AcDbLayerTableRecord
  2
Fills_ Pattern_Pen_No__2
 70
     0
 62
     7
  6
Continuous
370
    13
390
F
347
3E
348
0
  0
LAYER
  5
46
102
{ACAD_XDICTIONARY
360
6BC
102
}
330
2
100
AcDbSymbolTableRecord
100
AcDbLayerTableRecord
  2
Fills_ Pattern_Pen_No__152
 70
     0
 62
   254
420
 13750737
  6
Continuous
370
    13
390
F
347
3E
348
0
  0
LAYER
  5
48
102
{ACAD_XDICTIONARY
360
6BE
102
}
330
2
100
AcDbSymbolTableRecord
100
AcDbLayerTableRecord
  2
0_Pen_No__153
 70
     0
 62
     9
420
 12171705
  6
Continuous
370
    13
390
F
347
3E
348
0
  0
LAYER
  5
4A
102
{ACAD_XDICTIONARY
360
6C0
102
}
330
2
100
AcDbSymbolTableRecord
100
AcDbLayerTableRecord
  2
Fills_ Pattern_Pen_No__151
 70
     0
 62
   254
420
 15263976
  6
Continuous
370
    13
390
F
347
3E
348
0
  0
LAYER
  5
4B
102
{ACAD_XDICTIONARY
360
6C2
102
}
330
2
100
AcDbSymbolTableRecord
100
AcDbLayerTableRecord
  2
Fills_ Pattern_Pen_No__5
 70
     0
 62
     7
  6
Continuous
370
    35
390
F
347
3E
348
0
  0
LAYER
  5
4F
102
{ACAD_XDICTIONARY
360
6C4
102
}
330
2
100
AcDbSymbolTableRecord
100
AcDbLayerTableRecord
  2
Fills_ Pattern_Pen_No__4
 70
     0
 62
     7
  6
Continuous
370
    25
390
F
347
3E
348
0
  0
LAYER
  5
55
102
{ACAD_XDICTIONARY
360
6C6
102
}
330
2
100
AcDbSymbolTableRecord
100
AcDbLayerTableRecord
  2
0_Pen_No__2
 70
     0
 62
     7
  6
Continuous
370
    13
390
F
347
3E
348
0
  0
LAYER
  5
5C
102
{ACAD_XDICTIONARY
360
6C8
102
}
330
2
100
AcDbSymbolTableRecord
100
AcDbLayerTableRecord
  2
0_Pen_No__1
 70
     0
 62
     7
  6
Continuous
370
     0
390
F
347
3E
348
0
  0
LAYER
  5
65
102
{ACAD_XDICTIONARY
360
6CA
102
}
330
2
100
AcDbSymbolTableRecord
100
AcDbLayerTableRecord
  2
Documentation_ Floor_Pen_No__1
 70
     0
 62
     7
  6
Continuous
370
     0
390
F
347
3E
348
0
  0
LAYER
  5
67
102
{ACAD_XDICTIONARY
360
6CC
102
}
330
2
100
AcDbSymbolTableRecord
100
AcDbLayerTableRecord
  2
Documentation_ Floor_Pen_No__5
 70
     0
 62
     7
  6
Continuous
370
    35
390
F
347
3E
348
0
  0
LAYER
  5
71
102
{ACAD_XDICTIONARY
360
6CE
102
}
330
2
100
AcDbSymbolTableRecord
100
AcDbLayerTableRecord
  2
Documentation_ Floor_Pen_No__2
 70
     0
 62
     7
  6
Continuous
370
    13
390
F
347
3E
348
0
  0
LAYER
  5
77
102
{ACAD_XDICTIONARY
360
6D0
102
}
330
2
100
AcDbSymbolTableRecord
100
AcDbLayerTableRecord
  2
Documentation_ Floor_Pen_No__4
 70
     0
 62
     7
  6
Continuous
370
    25
390
F
347
3E
348
0
  0
LAYER
  5
79
102
{ACAD_XDICTIONARY
360
6D2
102
}
330
2
100
AcDbSymbolTableRecord
100
AcDbLayerTableRecord
  2
False Bits_ Plan_Pen_No__1
 70
     0
 62
     7
  6
Continuous
370
     0
390
F
347
3E
348
0
  0
LAYER
  5
81
102
{ACAD_XDICTIONARY
360
6D4
102
}
330
2
100
AcDbSymbolTableRecord
100
AcDbLayerTableRecord
  2
False Bits_ Plan_Pen_No__2
 70
     0
 62
     7
  6
Continuous
370
    13
390
F
347
3E
348
0
  0
LAYER
  5
B6
102
{ACAD_XDICTIONARY
360
6D6
102
}
330
2
100
AcDbSymbolTableRecord
100
AcDbLayerTableRecord
  2
Documentation_ Floor
 70
     0
 62
     7
  6
Continuous
370
    -3
390
F
347
3E
348
0
  0
LAYER
  5
118
102
{ACAD_XDICTIONARY
360
6D8
102
}
330
2
100
AcDbSymbolTableRecord
100
AcDbLayerTableRecord
  2
0_Pen_No__7
 70
     0
 62
     7
  6
Continuous
370
    70
390
F
347
3E
348
0
  0
LAYER
  5
11A
102
{ACAD_XDICTIONARY
360
6DA
102
}
330
2
100
AcDbSymbolTableRecord
100
AcDbLayerTableRecord
  2
Documentation_ Floor_Pen_No__7
 70
     0
 62
     7
  6
Continuous
370
    70
390
F
347
3E
348
0
  0
LAYER
  5
660
102
{ACAD_XDICTIONARY
360
6DC
102
}
330
2
100
AcDbSymbolTableRecord
100
AcDbLayerTableRecord
  2
Fills_ Pattern_Pen_No__1
 70
     0
 62
     7
  6
Continuous
370
     0
390
F
347
3E
348
0
  0
ENDTAB
  0
TABLE
  2
STYLE
  5
3
330
0
100
AcDbSymbolTable
 70
     2
  0
STYLE
  5
11
330
3
100
AcDbSymbolTableRecord
100
AcDbTextStyleTableRecord
  2
Standard
 70
     0
 40
0.0
 41
1.0
 50
0.0
 71
     0
 42
0.2
  3
txt
  4

  0
STYLE
  5
109
330
3
100
AcDbSymbolTableRecord
100
AcDbTextStyleTableRecord
  2
GENERATED_STYLE_1
 70
     0
 40
0.0
 41
1.0
 50
0.0
 71
     0
 42
0.2
  3
arial.ttf
  4

1001
ACAD
1000
Arial
1071
       34
  0
ENDTAB
  0
TABLE
  2
VIEW
  5
6
330
0
100
AcDbSymbolTable
 70
     2
  0
ENDTAB
  0
TABLE
  2
UCS
  5
7
330
0
100
AcDbSymbolTable
 70
     0
  0
ENDTAB
  0
TABLE
  2
APPID
  5
9
330
0
100
AcDbSymbolTable
 70
    10
  0
APPID
  5
12
330
9
100
AcDbSymbolTableRecord
100
AcDbRegAppTableRecord
  2
ACAD
 70
     0
  0
APPID
  5
666
330
9
100
AcDbSymbolTableRecord
100
AcDbRegAppTableRecord
  2
ACAD_PSEXT
 70
     0
  0
APPID
  5
668
330
9
100
AcDbSymbolTableRecord
100
AcDbRegAppTableRecord
  2
AcadAnnotative
 70
     0
  0
APPID
  5
669
330
9
100
AcDbSymbolTableRecord
100
AcDbRegAppTableRecord
  2
ACAD_DSTYLE_DIMJAG
 70
     0
  0
APPID
  5
66A
330
9
100
AcDbSymbolTableRecord
100
AcDbRegAppTableRecord
  2
ACAD_DSTYLE_DIMTALN
 70
     0
  0
APPID
  5
66D
330
9
100
AcDbSymbolTableRecord
100
AcDbRegAppTableRecord
  2
AcAecLayerStandard
 70
     0
  0
APPID
  5
66E
330
9
100
AcDbSymbolTableRecord
100
AcDbRegAppTableRecord
  2
AcCmTransparency
 70
     0
  0
APPID
  5
6A2
330
9
100
AcDbSymbolTableRecord
100
AcDbRegAppTableRecord
  2
ACAD_NAV_VCDISPLAY
 70
     0
  0
APPID
  5
6B2
330
9
100
AcDbSymbolTableRecord
100
AcDbRegAppTableRecord
  2
ACAD_EXEMPT_FROM_CAD_STANDARDS
 70
     0
  0
APPID
  5
769
330
9
100
AcDbSymbolTableRecord
100
AcDbRegAppTableRecord
  2
ACAD_MLEADERVER
 70
     0
  0
ENDTAB
  0
TABLE
  2
DIMSTYLE
  5
A
330
0
100
AcDbSymbolTable
 70
     3
100
AcDbDimStyleTable
 71
     1
340
27
  0
DIMSTYLE
105
27
330
A
100
AcDbSymbolTableRecord
100
AcDbDimStyleTableRecord
  2
Standard
 70
     0
340
11
  0
DIMSTYLE
105
10C
102
{ACAD_REACTORS
330
10B
102
}
330
A
100
AcDbSymbolTableRecord
100
AcDbDimStyleTableRecord
  2
GENERATED_STYLE__1
 70
     0
 41
3.04
 42
10.0
 73
     0
 74
     0
 77
     1
140
5.0
172
     1
176
     7
177
     7
178
     7
271
     0
288
     1
340
109
342
10D
343
10D
344
10D
  0
DIMSTYLE
105
665
330
A
100
AcDbSymbolTableRecord
100
AcDbDimStyleTableRecord
  2
GENERATED_STYLE__2
 70
     0
 41
3.04
 42
10.0
 77
     1
140
5.0
172
     1
176
     7
177
     7
178
     7
271
     0
340
109
342
10D
343
10D
344
10D
  0
ENDTAB
  0
TABLE
  2
BLOCK_RECORD
  5
1
330
0
100
AcDbSymbolTable
 70
    23
  0
BLOCK_RECORD
  5
1F
330
1
100
AcDbSymbolTableRecord
100
AcDbBlockTableRecord
  2
*Model_Space
340
22
 70
     0
280
     1
281
     0
  0
BLOCK_RECORD
  5
675
102
{ACAD_XDICTIONARY
360
693
102
}
330
1
100
AcDbSymbolTableRecord
100
AcDbBlockTableRecord
  2
*Paper_Space
340
674
 70
     0
280
     1
281
     0
  0
BLOCK_RECORD
  5
B1
330
1
100
AcDbSymbolTableRecord
100
AcDbBlockTableRecord
  2
PolyLine_1
340
0
102
{BLKREFS
331
B8
102
}
 70
     0
280
     1
281
     0
  0
BLOCK_RECORD
  5
B9
330
1
100
AcDbSymbolTableRecord
100
AcDbBlockTableRecord
  2
PolyLine_2
340
0
102
{BLKREFS
331
BF
102
}
 70
     0
280
     1
281
     0
  0
BLOCK_RECORD
  5
C0
330
1
100
AcDbSymbolTableRecord
100
AcDbBlockTableRecord
  2
PolyLine_3
340
0
102
{BLKREFS
331
C6
102
}
 70
     0
280
     1
281
     0
  0
BLOCK_RECORD
  5
C7
330
1
100
AcDbSymbolTableRecord
100
AcDbBlockTableRecord
  2
PolyLine_4
340
0
102
{BLKREFS
331
CD
102
}
 70
     0
280
     1
281
     0
  0
BLOCK_RECORD
  5
CE
330
1
100
AcDbSymbolTableRecord
100
AcDbBlockTableRecord
  2
PolyLine_5
340
0
102
{BLKREFS
331
D4
102
}
 70
     0
280
     1
281
     0
  0
BLOCK_RECORD
  5
D5
330
1
100
AcDbSymbolTableRecord
100
AcDbBlockTableRecord
  2
PolyLine_6
340
0
102
{BLKREFS
331
DB
102
}
 70
     0
280
     1
281
     0
  0
BLOCK_RECORD
  5
DC
330
1
100
AcDbSymbolTableRecord
100
AcDbBlockTableRecord
  2
PolyLine_7
340
0
102
{BLKREFS
331
E2
102
}
 70
     0
280
     1
281
     0
  0
BLOCK_RECORD
  5
E3
330
1
100
AcDbSymbolTableRecord
100
AcDbBlockTableRecord
  2
PolyLine_8
340
0
102
{BLKREFS
331
E9
102
}
 70
     0
280
     1
281
     0
  0
BLOCK_RECORD
  5
EA
330
1
100
AcDbSymbolTableRecord
100
AcDbBlockTableRecord
  2
PolyLine_9
340
0
102
{BLKREFS
331
F0
102
}
 70
     0
280
     1
281
     0
  0
BLOCK_RECORD
  5
F1
330
1
100
AcDbSymbolTableRecord
100
AcDbBlockTableRecord
  2
PolyLine_10
340
0
102
{BLKREFS
331
F7
102
}
 70
     0
280
     1
281
     0
  0
BLOCK_RECORD
  5
FF
330
1
100
AcDbSymbolTableRecord
100
AcDbBlockTableRecord
  2
*D10
340
0
 70
     0
280
     1
281
     0
  0
BLOCK_RECORD
  5
10D
330
1
100
AcDbSymbolTableRecord
100
AcDbBlockTableRecord
  2
ARROWHEAD_2
340
0
 70
     0
280
     1
281
     0
  0
BLOCK_RECORD
  5
11E
330
1
100
AcDbSymbolTableRecord
100
AcDbBlockTableRecord
  2
Untitled _STORY_MARKER
340
0
 70
     0
280
     1
281
     0
  0
BLOCK_RECORD
  5
1B3
330
1
100
AcDbSymbolTableRecord
100
AcDbBlockTableRecord
  2
Fill_1
340
0
 70
     0
280
     1
281
     0
  0
BLOCK_RECORD
  5
1BF
330
1
100
AcDbSymbolTableRecord
100
AcDbBlockTableRecord
  2
*X14
340
0
102
{BLKREFS
331
1B5
102
}
 70
     0
280
     1
281
     0
  0
BLOCK_RECORD
  5
2A9
330
1
100
AcDbSymbolTableRecord
100
AcDbBlockTableRecord
  2
Fill_2
340
0
 70
     0
280
     1
281
     0
  0
BLOCK_RECORD
  5
2AD
330
1
100
AcDbSymbolTableRecord
100
AcDbBlockTableRecord
  2
*X16
340
0
102
{BLKREFS
331
2AB
102
}
 70
     0
280
     1
281
     0
  0
BLOCK_RECORD
  5
4CD
330
1
100
AcDbSymbolTableRecord
100
AcDbBlockTableRecord
  2
Fill_3
340
0
 70
     0
280
     1
281
     0
  0
BLOCK_RECORD
  5
4D5
330
1
100
AcDbSymbolTableRecord
100
AcDbBlockTableRecord
  2
*X18
340
0
102
{BLKREFS
331
4CF
102
}
 70
     0
280
     1
281
     0
  0
BLOCK_RECORD
  5
525
330
1
100
AcDbSymbolTableRecord
100
AcDbBlockTableRecord
  2
Line_1
340
0
 70
     0
280
     1
281
     0
  0
BLOCK_RECORD
  5
52D
330
1
100
AcDbSymbolTableRecord
100
AcDbBlockTableRecord
  2
Line_2
340
0
 70
     0
280
     1
281
     0
  0
BLOCK_RECORD
  5
535
330
1
100
AcDbSymbolTableRecord
100
AcDbBlockTableRecord
  2
PolyLine_11
340
0
 70
     0
280
     1
281
     0
  0
BLOCK_RECORD
  5
53B
330
1
100
AcDbSymbolTableRecord
100
AcDbBlockTableRecord
  2
PolyLine_12
340
0
 70
     0
280
     1
281
     0
  0
ENDTAB
  0
ENDSEC
  0
SECTION
  2
BLOCKS
  0
BLOCK
  5
20
330
1F
100
AcDbEntity
  8
0
100
AcDbBlockBegin
  2
*Model_Space
 70
     0
 10
0.0
 20
0.0
 30
0.0
  3
*Model_Space
  1

  0
ENDBLK
  5
21
330
1F
100
AcDbEntity
  8
0
100
AcDbBlockEnd
  0
BLOCK
  5
694
330
675
100
AcDbEntity
 67
     1
  8
0
100
AcDbBlockBegin
  2
*Paper_Space
 70
     0
 10
0.0
 20
0.0
 30
0.0
  3
*Paper_Space
  1

  0
ENDBLK
  5
695
330
675
100
AcDbEntity
 67
     1
  8
0
100
AcDbBlockEnd
  0
BLOCK
  5
B2
330
B1
100
AcDbEntity
  8
0
100
AcDbBlockBegin
  2
PolyLine_1
 70
     0
 10
2280.529783473665
 20
-1217.194082407566
 30
0.0
  3
PolyLine_1
  1

  0
CIRCLE
  5
B4
330
B1
100
AcDbEntity
  8
Documentation_ Floor_Pen_No__1
  6
Continuous
100
AcDbCircle
 10
2287.556666370223
 20
-1217.194082407566
 30
0.0
 40
0.5
  0
HATCH
  5
B5
330
B1
100
AcDbEntity
  8
Documentation_ Floor
  6
Continuous
 62
    18
420
        0
370
     0
100
AcDbHatch
 10
0.0
 20
0.0
 30
0.0
210
0.0
220
0.0
230
1.0
  2
SOLID
 70
     1
 71
     0
 91
        1
 92
        3
 72
     0
 73
     1
 93
       16
 10
2288.056666370223
 20
-1217.194082407566
 10
2288.018606136478
 20
-1217.002740691383
 10
2287.910219760816
 20
-1216.840529016973
 10
2287.748008086405
 20
-1216.73214264131
 10
2287.556666370223
 20
-1216.694082407566
 10
2287.36532465404
 20
-1216.73214264131
 10
2287.203112979629
 20
-1216.840529016973
 10
2287.094726603967
 20
-1217.002740691383
 10
2287.056666370222
 20
-1217.194082407566
 10
2287.094726603967
 20
-1217.385424123748
 10
2287.203112979629
 20
-1217.547635798159
 10
2287.36532465404
 20
-1217.656022173822
 10
2287.556666370223
 20
-1217.694082407566
 10
2287.748008086405
 20
-1217.656022173822
 10
2287.910219760816
 20
-1217.547635798159
 10
2288.018606136478
 20
-1217.385424123748
 97
        0
 75
     0
 76
     1
 98
        0
450
        0
451
        0
460
0.0
461
0.0
452
        1
462
0.0
453
        0
470

  0
LWPOLYLINE
  5
B7
330
B1
100
AcDbEntity
  8
Documentation_ Floor_Pen_No__1
  6
Continuous
100
AcDbPolyline
 90
        2
 70
   128
 43
0.0
 10
2280.529783473665
 20
-1217.194082407566
 10
2287.056666370222
 20
-1217.194082407566
  0
ENDBLK
  5
B3
330
B1
100
AcDbEntity
  8
0
100
AcDbBlockEnd
  0
BLOCK
  5
BA
330
B9
100
AcDbEntity
  8
0
100
AcDbBlockBegin
  2
PolyLine_2
 70
     0
 10
2262.730347147563
 20
-1118.677698807787
 30
0.0
  3
PolyLine_2
  1

  0
CIRCLE
  5
BC
330
B9
100
AcDbEntity
  8
Documentation_ Floor_Pen_No__1
  6
Continuous
100
AcDbCircle
 10
2312.26842951889
 20
-1118.677698807787
 30
0.0
 40
0.5
  0
HATCH
  5
BD
330
B9
100
AcDbEntity
  8
Documentation_ Floor
  6
Continuous
 62
    18
420
        0
370
     0
100
AcDbHatch
 10
0.0
 20
0.0
 30
0.0
210
0.0
220
0.0
230
1.0
  2
SOLID
 70
     1
 71
     0
 91
        1
 92
        3
 72
     0
 73
     1
 93
       16
 10
2312.768429518891
 20
-1118.677698807787
 10
2312.730369285146
 20
-1118.486357091604
 10
2312.621982909484
 20
-1118.324145417193
 10
2312.459771235073
 20
-1118.215759041531
 10
2312.26842951889
 20
-1118.177698807786
 10
2312.077087802708
 20
-1118.215759041531
 10
2311.914876128297
 20
-1118.324145417193
 10
2311.806489752635
 20
-1118.486357091604
 10
2311.76842951889
 20
-1118.677698807787
 10
2311.806489752635
 20
-1118.869040523969
 10
2311.914876128297
 20
-1119.03125219838
 10
2312.077087802708
 20
-1119.139638574042
 10
2312.26842951889
 20
-1119.177698807786
 10
2312.459771235073
 20
-1119.139638574042
 10
2312.621982909484
 20
-1119.03125219838
 10
2312.730369285146
 20
-1118.869040523969
 97
        0
 75
     0
 76
     1
 98
        0
450
        0
451
        0
460
0.0
461
0.0
452
        1
462
0.0
453
        0
470

  0
LWPOLYLINE
  5
BE
330
B9
100
AcDbEntity
  8
Documentation_ Floor_Pen_No__1
  6
Continuous
100
AcDbPolyline
 90
        2
 70
   128
 43
0.0
 10
2262.730347147563
 20
-1118.677698807787
 10
2311.76842951889
 20
-1118.677698807787
  0
ENDBLK
  5
BB
330
B9
100
AcDbEntity
  8
0
100
AcDbBlockEnd
  0
BLOCK
  5
C1
330
C0
100
AcDbEntity
  8
0
100
AcDbBlockBegin
  2
PolyLine_3
 70
     0
 10
2521.433123354677
 20
-1071.217079920084
 30
0.0
  3
PolyLine_3
  1

  0
CIRCLE
  5
C3
330
C0
100
AcDbEntity
  8
Documentation_ Floor_Pen_No__1
  6
Continuous
100
AcDbCircle
 10
2506.137033051604
 20
-1071.217079920084
 30
0.0
 40
0.5
  0
HATCH
  5
C4
330
C0
100
AcDbEntity
  8
Documentation_ Floor
  6
Continuous
 62
    18
420
        0
370
     0
100
AcDbHatch
 10
0.0
 20
0.0
 30
0.0
210
0.0
220
0.0
230
1.0
  2
SOLID
 70
     1
 71
     0
 91
        1
 92
        3
 72
     0
 73
     1
 93
       16
 10
2506.637033051605
 20
-1071.217079920084
 10
2506.59897281786
 20
-1071.025738203902
 10
2506.490586442197
 20
-1070.863526529491
 10
2506.328374767786
 20
-1070.755140153828
 10
2506.137033051604
 20
-1070.717079920084
 10
2505.945691335421
 20
-1070.755140153828
 10
2505.783479661011
 20
-1070.863526529491
 10
2505.675093285348
 20
-1071.025738203902
 10
2505.637033051604
 20
-1071.217079920084
 10
2505.675093285348
 20
-1071.408421636266
 10
2505.783479661011
 20
-1071.570633310677
 10
2505.945691335421
 20
-1071.67901968634
 10
2506.137033051604
 20
-1071.717079920084
 10
2506.328374767786
 20
-1071.67901968634
 10
2506.490586442197
 20
-1071.570633310677
 10
2506.59897281786
 20
-1071.408421636266
 97
        0
 75
     0
 76
     1
 98
        0
450
        0
451
        0
460
0.0
461
0.0
452
        1
462
0.0
453
        0
470

  0
LWPOLYLINE
  5
C5
330
C0
100
AcDbEntity
  8
Documentation_ Floor_Pen_No__1
  6
Continuous
100
AcDbPolyline
 90
        2
 70
   128
 43
0.0
 10
2521.433123354677
 20
-1071.217079920084
 10
2506.637033051605
 20
-1071.217079920084
  0
ENDBLK
  5
C2
330
C0
100
AcDbEntity
  8
0
100
AcDbBlockEnd
  0
BLOCK
  5
C8
330
C7
100
AcDbEntity
  8
0
100
AcDbBlockBegin
  2
PolyLine_4
 70
     0
 10
2369.006397535619
 20
-1099.510667618945
 30
0.0
  3
PolyLine_4
  1

  0
CIRCLE
  5
CA
330
C7
100
AcDbEntity
  8
Documentation_ Floor_Pen_No__1
  6
Continuous
100
AcDbCircle
 10
2369.006397535619
 20
-1121.049791874063
 30
0.0
 40
0.5
  0
HATCH
  5
CB
330
C7
100
AcDbEntity
  8
Documentation_ Floor
  6
Continuous
 62
    18
420
        0
370
     0
100
AcDbHatch
 10
0.0
 20
0.0
 30
0.0
210
0.0
220
0.0
230
1.0
  2
SOLID
 70
     1
 71
     0
 91
        1
 92
        3
 72
     0
 73
     1
 93
       16
 10
2369.506397535618
 20
-1121.049791874063
 10
2369.468337301874
 20
-1120.85845015788
 10
2369.359950926212
 20
-1120.69623848347
 10
2369.197739251801
 20
-1120.587852107807
 10
2369.006397535619
 20
-1120.549791874063
 10
2368.815055819436
 20
-1120.587852107807
 10
2368.652844145025
 20
-1120.69623848347
 10
2368.544457769363
 20
-1120.85845015788
 10
2368.506397535618
 20
-1121.049791874063
 10
2368.544457769363
 20
-1121.241133590245
 10
2368.652844145025
 20
-1121.403345264656
 10
2368.815055819436
 20
-1121.511731640319
 10
2369.006397535619
 20
-1121.549791874063
 10
2369.197739251801
 20
-1121.511731640319
 10
2369.359950926212
 20
-1121.403345264656
 10
2369.468337301874
 20
-1121.241133590245
 97
        0
 75
     0
 76
     1
 98
        0
450
        0
451
        0
460
0.0
461
0.0
452
        1
462
0.0
453
        0
470

  0
LWPOLYLINE
  5
CC
330
C7
100
AcDbEntity
  8
Documentation_ Floor_Pen_No__1
  6
Continuous
100
AcDbPolyline
 90
        2
 70
   128
 43
0.0
 10
2369.006397535619
 20
-1099.510667618945
 10
2369.006397535619
 20
-1120.549791874063
  0
ENDBLK
  5
C9
330
C7
100
AcDbEntity
  8
0
100
AcDbBlockEnd
  0
BLOCK
  5
CF
330
CE
100
AcDbEntity
  8
0
100
AcDbBlockBegin
  2
PolyLine_5
 70
     0
 10
2462.137033051748
 20
-1246.809526194859
 30
0.0
  3
PolyLine_5
  1

  0
CIRCLE
  5
D1
330
CE
100
AcDbEntity
  8
Documentation_ Floor_Pen_No__1
  6
Continuous
100
AcDbCircle
 10
2374.350375915083
 20
-1246.809526194859
 30
0.0
 40
0.5
  0
HATCH
  5
D2
330
CE
100
AcDbEntity
  8
Documentation_ Floor
  6
Continuous
 62
    18
420
        0
370
     0
100
AcDbHatch
 10
0.0
 20
0.0
 30
0.0
210
0.0
220
0.0
230
1.0
  2
SOLID
 70
     1
 71
     0
 91
        1
 92
        3
 72
     0
 73
     1
 93
       16
 10
2374.850375915083
 20
-1246.809526194859
 10
2374.812315681339
 20
-1246.618184478677
 10
2374.703929305677
 20
-1246.455972804266
 10
2374.541717631265
 20
-1246.347586428603
 10
2374.350375915083
 20
-1246.309526194859
 10
2374.1590341989
 20
-1246.347586428603
 10
2373.996822524489
 20
-1246.455972804266
 10
2373.888436148827
 20
-1246.618184478677
 10
2373.850375915083
 20
-1246.809526194859
 10
2373.888436148827
 20
-1247.000867911042
 10
2373.996822524489
 20
-1247.163079585452
 10
2374.1590341989
 20
-1247.271465961115
 10
2374.350375915083
 20
-1247.309526194859
 10
2374.541717631265
 20
-1247.271465961115
 10
2374.703929305677
 20
-1247.163079585452
 10
2374.812315681339
 20
-1247.000867911042
 97
        0
 75
     0
 76
     1
 98
        0
450
        0
451
        0
460
0.0
461
0.0
452
        1
462
0.0
453
        0
470

  0
LWPOLYLINE
  5
D3
330
CE
100
AcDbEntity
  8
Documentation_ Floor_Pen_No__1
  6
Continuous
100
AcDbPolyline
 90
        2
 70
   128
 43
0.0
 10
2462.137033051748
 20
-1246.809526194859
 10
2374.850375915083
 20
-1246.809526194859
  0
ENDBLK
  5
D0
330
CE
100
AcDbEntity
  8
0
100
AcDbBlockEnd
  0
BLOCK
  5
D6
330
D5
100
AcDbEntity
  8
0
100
AcDbBlockBegin
  2
PolyLine_6
 70
     0
 10
2462.137033051748
 20
-1262.518038587519
 30
0.0
  3
PolyLine_6
  1

  0
CIRCLE
  5
D8
330
D5
100
AcDbEntity
  8
Documentation_ Floor_Pen_No__1
  6
Continuous
100
AcDbCircle
 10
2388.137033051628
 20
-1262.518038587519
 30
0.0
 40
0.5
  0
HATCH
  5
D9
330
D5
100
AcDbEntity
  8
Documentation_ Floor
  6
Continuous
 62
    18
420
        0
370
     0
100
AcDbHatch
 10
0.0
 20
0.0
 30
0.0
210
0.0
220
0.0
230
1.0
  2
SOLID
 70
     1
 71
     0
 91
        1
 92
        3
 72
     0
 73
     1
 93
       16
 10
2388.637033051629
 20
-1262.518038587519
 10
2388.598972817884
 20
-1262.326696871337
 10
2388.490586442222
 20
-1262.164485196926
 10
2388.328374767811
 20
-1262.056098821264
 10
2388.137033051628
 20
-1262.018038587519
 10
2387.945691335446
 20
-1262.056098821264
 10
2387.783479661035
 20
-1262.164485196926
 10
2387.675093285373
 20
-1262.326696871337
 10
2387.637033051628
 20
-1262.518038587519
 10
2387.675093285373
 20
-1262.709380303702
 10
2387.783479661035
 20
-1262.871591978112
 10
2387.945691335446
 20
-1262.979978353775
 10
2388.137033051628
 20
-1263.018038587519
 10
2388.328374767811
 20
-1262.979978353775
 10
2388.490586442222
 20
-1262.871591978112
 10
2388.598972817884
 20
-1262.709380303702
 97
        0
 75
     0
 76
     1
 98
        0
450
        0
451
        0
460
0.0
461
0.0
452
        1
462
0.0
453
        0
470

  0
LWPOLYLINE
  5
DA
330
D5
100
AcDbEntity
  8
Documentation_ Floor_Pen_No__1
  6
Continuous
100
AcDbPolyline
 90
        2
 70
   128
 43
0.0
 10
2462.137033051748
 20
-1262.518038587519
 10
2388.637033051629
 20
-1262.518038587519
  0
ENDBLK
  5
D7
330
D5
100
AcDbEntity
  8
0
100
AcDbBlockEnd
  0
BLOCK
  5
DD
330
DC
100
AcDbEntity
  8
0
100
AcDbBlockBegin
  2
PolyLine_7
 70
     0
 10
2462.137033051748
 20
-1278.117718617876
 30
0.0
  3
PolyLine_7
  1

  0
CIRCLE
  5
DF
330
DC
100
AcDbEntity
  8
Documentation_ Floor_Pen_No__1
  6
Continuous
100
AcDbCircle
 10
2404.635903908864
 20
-1278.117718617876
 30
0.0
 40
0.5
  0
HATCH
  5
E0
330
DC
100
AcDbEntity
  8
Documentation_ Floor
  6
Continuous
 62
    18
420
        0
370
     0
100
AcDbHatch
 10
0.0
 20
0.0
 30
0.0
210
0.0
220
0.0
230
1.0
  2
SOLID
 70
     1
 71
     0
 91
        1
 92
        3
 72
     0
 73
     1
 93
       16
 10
2405.135903908865
 20
-1278.117718617876
 10
2405.09784367512
 20
-1277.926376901694
 10
2404.989457299458
 20
-1277.764165227283
 10
2404.827245625047
 20
-1277.65577885162
 10
2404.635903908864
 20
-1277.617718617876
 10
2404.444562192681
 20
-1277.65577885162
 10
2404.282350518271
 20
-1277.764165227283
 10
2404.173964142608
 20
-1277.926376901694
 10
2404.135903908864
 20
-1278.117718617876
 10
2404.173964142608
 20
-1278.309060334058
 10
2404.282350518271
 20
-1278.471272008469
 10
2404.444562192681
 20
-1278.579658384132
 10
2404.635903908864
 20
-1278.617718617876
 10
2404.827245625047
 20
-1278.579658384132
 10
2404.989457299458
 20
-1278.471272008469
 10
2405.09784367512
 20
-1278.309060334058
 97
        0
 75
     0
 76
     1
 98
        0
450
        0
451
        0
460
0.0
461
0.0
452
        1
462
0.0
453
        0
470

  0
LWPOLYLINE
  5
E1
330
DC
100
AcDbEntity
  8
Documentation_ Floor_Pen_No__1
  6
Continuous
100
AcDbPolyline
 90
        2
 70
   128
 43
0.0
 10
2462.137033051748
 20
-1278.117718617876
 10
2405.135903908865
 20
-1278.117718617876
  0
ENDBLK
  5
DE
330
DC
100
AcDbEntity
  8
0
100
AcDbBlockEnd
  0
BLOCK
  5
E4
330
E3
100
AcDbEntity
  8
0
100
AcDbBlockBegin
  2
PolyLine_8
 70
     0
 10
2462.137033051748
 20
-1293.800731857881
 30
0.0
  3
PolyLine_8
  1

  0
CIRCLE
  5
E6
330
E3
100
AcDbEntity
  8
Documentation_ Floor_Pen_No__1
  6
Continuous
100
AcDbCircle
 10
2429.132989333805
 20
-1293.800731857881
 30
0.0
 40
0.5
  0
HATCH
  5
E7
330
E3
100
AcDbEntity
  8
Documentation_ Floor
  6
Continuous
 62
    18
420
        0
370
     0
100
AcDbHatch
 10
0.0
 20
0.0
 30
0.0
210
0.0
220
0.0
230
1.0
  2
SOLID
 70
     1
 71
     0
 91
        1
 92
        3
 72
     0
 73
     1
 93
       16
 10
2429.632989333804
 20
-1293.800731857881
 10
2429.59492910006
 20
-1293.609390141698
 10
2429.486542724398
 20
-1293.447178467287
 10
2429.324331049987
 20
-1293.338792091625
 10
2429.132989333805
 20
-1293.300731857881
 10
2428.941647617622
 20
-1293.338792091625
 10
2428.779435943211
 20
-1293.447178467287
 10
2428.671049567549
 20
-1293.609390141698
 10
2428.632989333805
 20
-1293.800731857881
 10
2428.671049567549
 20
-1293.992073574063
 10
2428.779435943211
 20
-1294.154285248474
 10
2428.941647617622
 20
-1294.262671624136
 10
2429.132989333805
 20
-1294.30073185788
 10
2429.324331049987
 20
-1294.262671624136
 10
2429.486542724398
 20
-1294.154285248474
 10
2429.59492910006
 20
-1293.992073574063
 97
        0
 75
     0
 76
     1
 98
        0
450
        0
451
        0
460
0.0
461
0.0
452
        1
462
0.0
453
        0
470

  0
LWPOLYLINE
  5
E8
330
E3
100
AcDbEntity
  8
Documentation_ Floor_Pen_No__1
  6
Continuous
100
AcDbPolyline
 90
        2
 70
   128
 43
0.0
 10
2462.137033051748
 20
-1293.800731857881
 10
2429.632989333804
 20
-1293.800731857881
  0
ENDBLK
  5
E5
330
E3
100
AcDbEntity
  8
0
100
AcDbBlockEnd
  0
BLOCK
  5
EB
330
EA
100
AcDbEntity
  8
0
100
AcDbBlockBegin
  2
PolyLine_9
 70
     0
 10
2461.651370477323
 20
-1161.374057474788
 30
0.0
  3
PolyLine_9
  1

  0
CIRCLE
  5
ED
330
EA
100
AcDbEntity
  8
Documentation_ Floor_Pen_No__1
  6
Continuous
100
AcDbCircle
 10
2433.10316601453
 20
-1161.374057474788
 30
0.0
 40
0.5
  0
HATCH
  5
EE
330
EA
100
AcDbEntity
  8
Documentation_ Floor
  6
Continuous
 62
    18
420
        0
370
     0
100
AcDbHatch
 10
0.0
 20
0.0
 30
0.0
210
0.0
220
0.0
230
1.0
  2
SOLID
 70
     1
 71
     0
 91
        1
 92
        3
 72
     0
 73
     1
 93
       16
 10
2433.603166014531
 20
-1161.374057474788
 10
2433.565105780786
 20
-1161.182715758605
 10
2433.456719405124
 20
-1161.020504084194
 10
2433.294507730713
 20
-1160.912117708532
 10
2433.10316601453
 20
-1160.874057474788
 10
2432.911824298348
 20
-1160.912117708532
 10
2432.749612623937
 20
-1161.020504084194
 10
2432.641226248275
 20
-1161.182715758605
 10
2432.60316601453
 20
-1161.374057474788
 10
2432.641226248275
 20
-1161.56539919097
 10
2432.749612623937
 20
-1161.727610865381
 10
2432.911824298348
 20
-1161.835997241044
 10
2433.10316601453
 20
-1161.874057474788
 10
2433.294507730713
 20
-1161.835997241044
 10
2433.456719405124
 20
-1161.727610865381
 10
2433.565105780786
 20
-1161.56539919097
 97
        0
 75
     0
 76
     1
 98
        0
450
        0
451
        0
460
0.0
461
0.0
452
        1
462
0.0
453
        0
470

  0
LWPOLYLINE
  5
EF
330
EA
100
AcDbEntity
  8
Documentation_ Floor_Pen_No__1
  6
Continuous
100
AcDbPolyline
 90
        2
 70
   128
 43
0.0
 10
2461.651370477323
 20
-1161.374057474788
 10
2433.603166014531
 20
-1161.374057474788
  0
ENDBLK
  5
EC
330
EA
100
AcDbEntity
  8
0
100
AcDbBlockEnd
  0
BLOCK
  5
F2
330
F1
100
AcDbEntity
  8
0
100
AcDbBlockBegin
  2
PolyLine_10
 70
     0
 10
2462.287396047231
 20
-1130.859099069153
 30
0.0
  3
PolyLine_10
  1

  0
CIRCLE
  5
F4
330
F1
100
AcDbEntity
  8
Documentation_ Floor_Pen_No__1
  6
Continuous
100
AcDbCircle
 10
2424.867561518911
 20
-1142.675888920202
 30
0.0
 40
0.5
  0
HATCH
  5
F5
330
F1
100
AcDbEntity
  8
Documentation_ Floor
  6
Continuous
 62
    18
420
        0
370
     0
100
AcDbHatch
 10
0.0
 20
0.0
 30
0.0
210
0.0
220
0.0
230
1.0
  2
SOLID
 70
     1
 71
     0
 91
        1
 92
        3
 72
     0
 73
     1
 93
       16
 10
2425.367561518911
 20
-1142.675888920202
 10
2425.329501285166
 20
-1142.484547204019
 10
2425.221114909505
 20
-1142.322335529609
 10
2425.058903235093
 20
-1142.213949153946
 10
2424.867561518911
 20
-1142.175888920202
 10
2424.676219802729
 20
-1142.213949153946
 10
2424.514008128318
 20
-1142.322335529609
 10
2424.405621752656
 20
-1142.484547204019
 10
2424.367561518911
 20
-1142.675888920202
 10
2424.405621752656
 20
-1142.867230636384
 10
2424.514008128318
 20
-1143.029442310795
 10
2424.676219802729
 20
-1143.137828686458
 10
2424.867561518911
 20
-1143.175888920202
 10
2425.058903235093
 20
-1143.137828686458
 10
2425.221114909505
 20
-1143.029442310795
 10
2425.329501285166
 20
-1142.867230636384
 97
        0
 75
     0
 76
     1
 98
        0
450
        0
451
        0
460
0.0
461
0.0
452
        1
462
0.0
453
        0
470

  0
LWPOLYLINE
  5
F6
330
F1
100
AcDbEntity
  8
Documentation_ Floor_Pen_No__1
  6
Continuous
100
AcDbPolyline
 90
        3
 70
   128
 43
0.0
 10
2462.287396047231
 20
-1130.859099069153
 10
2424.867561518911
 20
-1130.859099069153
 10
2424.867561518911
 20
-1142.175888920202
  0
ENDBLK
  5
F3
330
F1
100
AcDbEntity
  8
0
100
AcDbBlockEnd
  0
BLOCK
  5
100
330
FF
100
AcDbEntity
  8
0
100
AcDbBlockBegin
  2
*D10
 70
     1
 10
0.0
 20
0.0
 30
0.0
  3
*D10
  1

  0
LINE
  5
102
330
FF
100
AcDbEntity
  8
Documentation_ Floor_Pen_No__1
  6
Continuous
440
 16777216
100
AcDbLine
 10
2445.347889152413
 20
-1161.952216264649
 30
0.0
 11
2445.347889152413
 21
-1159.996216264649
 31
0.0
  0
LINE
  5
103
330
FF
100
AcDbEntity
  8
Documentation_ Floor_Pen_No__1
  6
Continuous
440
 16777216
100
AcDbLine
 10
2445.347889152413
 20
-1159.996216264649
 30
0.0
 11
2445.347889152413
 21
-1125.049791874062
 31
0.0
  0
LINE
  5
104
330
FF
100
AcDbEntity
  8
Documentation_ Floor_Pen_No__5
  6
Continuous
440
 16777216
100
AcDbLine
 10
2443.347889152413
 20
-1158.841516264649
 30
0.0
 11
2447.347889152413
 21
-1161.150916264649
 31
0.0
  0
LINE
  5
105
330
FF
100
AcDbEntity
  8
Documentation_ Floor_Pen_No__5
  6
Continuous
440
 16777216
100
AcDbLine
 10
2447.347889152413
 20
-1126.204491874063
 30
0.0
 11
2443.347889152413
 21
-1123.895091874063
 31
0.0
  0
LINE
  5
106
330
FF
100
AcDbEntity
  8
Documentation_ Floor_Pen_No__1
  6
Continuous
440
 16777216
100
AcDbLine
 10
2445.347889152413
 20
-1125.049791874062
 30
0.0
 11
2445.347889152413
 21
-1123.093791874062
 31
0.0
  0
LINE
  5
107
330
FF
100
AcDbEntity
  8
Documentation_ Floor_Pen_No__1
  6
Continuous
440
 16777216
100
AcDbLine
 10
2448.347889152413
 20
-1159.996216264649
 30
0.0
 11
2435.347889152414
 21
-1159.996216264649
 31
0.0
  0
LINE
  5
108
330
FF
100
AcDbEntity
  8
Documentation_ Floor_Pen_No__1
  6
Continuous
440
 16777216
100
AcDbLine
 10
2448.347889152413
 20
-1125.049791874062
 30
0.0
 11
2435.347889152414
 21
-1125.049791874062
 31
0.0
  0
MTEXT
  5
10A
330
FF
100
AcDbEntity
  8
Documentation_ Floor_Pen_No__1
440
 16777216
100
AcDbMText
 10
2444.347889174764
 20
-1146.317304206443
 30
0.0
 40
5.0
 41
0.0
 46
0.0
 71
     7
 72
     1
  1
{35}
  7
GENERATED_STYLE_1
 11
0.0000000000000001
 21
1.0
 31
0.0
 73
     1
 44
1.0
  0
ENDBLK
  5
101
330
FF
100
AcDbEntity
  8
0
100
AcDbBlockEnd
  0
BLOCK
  5
10E
330
10D
100
AcDbEntity
  8
0
100
AcDbBlockBegin
  2
ARROWHEAD_2
 70
     0
 10
0.0
 20
0.0
 30
0.0
  3
ARROWHEAD_2
  1

  0
LINE
  5
110
330
10D
100
AcDbEntity
  8
0
  6
Continuous
 62
     0
370
     0
100
AcDbLine
 10
-0.3781315
 20
-0.6550000000000001
 30
0.0
 11
0.3781315
 21
0.6550000000000001
 31
0.0
  0
LINE
  5
111
330
10D
100
AcDbEntity
  8
0
  6
Continuous
 62
     0
370
     0
100
AcDbLine
 10
0.0
 20
0.0
 30
0.0
 11
-1.0
 21
0.0
 31
0.0
  0
ENDBLK
  5
10F
330
10D
100
AcDbEntity
  8
0
100
AcDbBlockEnd
  0
BLOCK
  5
11F
330
11E
100
AcDbEntity
  8
0
100
AcDbBlockBegin
  2
Untitled _STORY_MARKER
 70
     0
 10
0.0
 20
0.0
 30
0.0
  3
Untitled _STORY_MARKER
  1

  0
ENDBLK
  5
120
330
11E
100
AcDbEntity
  8
0
100
AcDbBlockEnd
  0
BLOCK
  5
1B4
330
1B3
100
AcDbEntity
  8
0
100
AcDbBlockBegin
  2
Fill_1
 70
     0
 10
0.0
 20
0.0
 30
0.0
  3
Fill_1
  1

  0
INSERT
  5
1B5
330
1B3
100
AcDbEntity
  8
Fills_ Pattern_Pen_No__153
  6
Continuous
100
AcDbBlockReference
  2
*X14
 10
0.0
 20
0.0
 30
0.0
  0
LINE
  5
1B6
330
1B3
100
AcDbEntity
  8
Fills_ Pattern_Pen_No__2
  6
Continuous
100
AcDbLine
 10
1474.355887181149
 20
-357.1255854503157
 30
0.0
 11
1474.355887181149
 21
-302.125585450316
 31
0.0
  0
LINE
  5
1B7
330
1B3
100
AcDbEntity
  8
Fills_ Pattern_Pen_No__2
  6
Continuous
100
AcDbLine
 10
1484.35588718114
 20
-357.1255854503157
 30
0.0
 11
1474.355887181149
 21
-357.1255854503157
 31
0.0
  0
LINE
  5
1B8
330
1B3
100
AcDbEntity
  8
Fills_ Pattern_Pen_No__2
  6
Continuous
100
AcDbLine
 10
1484.35588718114
 20
-344.1420844014189
 30
0.0
 11
1484.35588718114
 21
-357.1255854503157
 31
0.0
  0
LINE
  5
1B9
330
1B3
100
AcDbEntity
  8
Fills_ Pattern_Pen_No__2
  6
Continuous
100
AcDbLine
 10
1483.355887181139
 20
-344.1420844014189
 30
0.0
 11
1484.35588718114
 21
-344.1420844014189
 31
0.0
  0
LINE
  5
1BA
330
1B3
100
AcDbEntity
  8
Fills_ Pattern_Pen_No__2
  6
Continuous
100
AcDbLine
 10
1483.355887181139
 20
-315.0585968573356
 30
0.0
 11
1483.355887181139
 21
-344.1420844014189
 31
0.0
  0
LINE
  5
1BB
330
1B3
100
AcDbEntity
  8
Fills_ Pattern_Pen_No__2
  6
Continuous
100
AcDbLine
 10
1484.35588718114
 20
-315.0585968573356
 30
0.0
 11
1483.355887181139
 21
-315.0585968573356
 31
0.0
  0
LINE
  5
1BC
330
1B3
100
AcDbEntity
  8
Fills_ Pattern_Pen_No__2
  6
Continuous
100
AcDbLine
 10
1484.35588718114
 20
-297.1255854503152
 30
0.0
 11
1484.35588718114
 21
-315.0585968573356
 31
0.0
  0
LINE
  5
1BD
330
1B3
100
AcDbEntity
  8
Fills_ Pattern_Pen_No__2
  6
Continuous
100
AcDbLine
 10
1474.355887181149
 20
-302.125585450316
 30
0.0
 11
1484.35588718114
 21
-297.1255854503152
 31
0.0
  0
ENDBLK
  5
1BE
330
1B3
100
AcDbEntity
  8
0
100
AcDbBlockEnd
  0
BLOCK
  5
1C0
330
1BF
100
AcDbEntity
  8
0
100
AcDbBlockBegin
  2
*X14
 70
     1
 10
0.0
 20
0.0
 30
0.0
  3
*X14
  1

  0
LINE
  5
1C1
330
1BF
100
AcDbEntity
  8
Fills_ Pattern_Pen_No__153
  6
Continuous
100
AcDbLine
 10
1481.158478205606
 20
-317.3172849150436
 30
0.0
 11
1481.381857011669
 21
-316.9658345888659
 31
0.0
  0
LINE
  5
1C2
330
1BF
100
AcDbEntity
  8
Fills_ Pattern_Pen_No__153
  6
Continuous
100
AcDbLine
 10
1474.692693798436
 20
-310.8515005078738
 30
0.0
 11
1474.916072604499
 21
-310.500050181696
 31
0.0
  0
LINE
  5
1C3
330
1BF
100
AcDbEntity
  8
Fills_ Pattern_Pen_No__153
  6
Continuous
100
AcDbLine
 10
1481.381857011669
 20
-316.9658345888659
 30
0.0
 11
1481.606039401778
 21
-316.6148963054984
 31
0.0
  0
LINE
  5
1C4
330
1BF
100
AcDbEntity
  8
Fills_ Pattern_Pen_No__153
  6
Continuous
100
AcDbLine
 10
1474.916072604499
 20
-310.500050181696
 30
0.0
 11
1475.140254994608
 21
-310.1491118983286
 31
0.0
  0
LINE
  5
1C5
330
1BF
100
AcDbEntity
  8
Fills_ Pattern_Pen_No__153
  6
Continuous
100
AcDbLine
 10
1481.606039401778
 20
-316.6148963054984
 30
0.0
 11
1481.831024202204
 21
-316.2644719023161
 31
0.0
  0
LINE
  5
1C6
330
1BF
100
AcDbEntity
  8
Fills_ Pattern_Pen_No__153
  6
Continuous
100
AcDbLine
 10
1475.140254994608
 20
-310.1491118983286
 30
0.0
 11
1475.365239795034
 21
-309.7986874951463
 31
0.0
  0
LINE
  5
1C7
330
1BF
100
AcDbEntity
  8
Fills_ Pattern_Pen_No__153
  6
Continuous
100
AcDbLine
 10
1481.831024202204
 20
-316.2644719023161
 30
0.0
 11
1482.056810235013
 21
-315.914563214004
 31
0.0
  0
LINE
  5
1C8
330
1BF
100
AcDbEntity
  8
Fills_ Pattern_Pen_No__153
  6
Continuous
100
AcDbLine
 10
1475.365239795034
 20
-309.7986874951463
 30
0.0
 11
1475.591025827844
 21
-309.4487788068342
 31
0.0
  0
LINE
  5
1C9
330
1BF
100
AcDbEntity
  8
Fills_ Pattern_Pen_No__153
  6
Continuous
100
AcDbLine
 10
1482.056810235013
 20
-315.914563214004
 30
0.0
 11
1482.28339631808
 21
-315.5651720725467
 31
0.0
  0
LINE
  5
1CA
330
1BF
100
AcDbEntity
  8
Fills_ Pattern_Pen_No__153
  6
Continuous
100
AcDbLine
 10
1475.591025827844
 20
-309.4487788068342
 30
0.0
 11
1475.81761191091
 21
-309.0993876653768
 31
0.0
  0
LINE
  5
1CB
330
1BF
100
AcDbEntity
  8
Fills_ Pattern_Pen_No__153
  6
Continuous
100
AcDbLine
 10
1482.28339631808
 20
-315.5651720725467
 30
0.0
 11
1482.510781265087
 21
-315.2163003072192
 31
0.0
  0
LINE
  5
1CC
330
1BF
100
AcDbEntity
  8
Fills_ Pattern_Pen_No__153
  6
Continuous
100
AcDbLine
 10
1475.81761191091
 20
-309.0993876653768
 30
0.0
 11
1476.044996857917
 21
-308.7505159000494
 31
0.0
  0
LINE
  5
1CD
330
1BF
100
AcDbEntity
  8
Fills_ Pattern_Pen_No__153
  6
Continuous
100
AcDbLine
 10
1482.510781265087
 20
-315.2163003072192
 30
0.0
 11
1482.738963885537
 21
-314.8679497445774
 31
0.0
  0
LINE
  5
1CE
330
1BF
100
AcDbEntity
  8
Fills_ Pattern_Pen_No__153
  6
Continuous
100
AcDbLine
 10
1476.044996857917
 20
-308.7505159000494
 30
0.0
 11
1476.273179478367
 21
-308.4021653374076
 31
0.0
  0
LINE
  5
1CF
330
1BF
100
AcDbEntity
  8
Fills_ Pattern_Pen_No__153
  6
Continuous
100
AcDbLine
 10
1482.738963885537
 20
-314.8679497445774
 30
0.0
 11
1482.967942984754
 21
-314.5201222084482
 31
0.0
  0
LINE
  5
1D0
330
1BF
100
AcDbEntity
  8
Fills_ Pattern_Pen_No__153
  6
Continuous
100
AcDbLine
 10
1476.273179478367
 20
-308.4021653374076
 30
0.0
 11
1476.502158577584
 21
-308.0543378012783
 31
0.0
  0
LINE
  5
1D1
330
1BF
100
AcDbEntity
  8
Fills_ Pattern_Pen_No__153
  6
Continuous
100
AcDbLine
 10
1482.668223417717
 20
-318.8270301271543
 30
0.0
 11
1483.355887181139
 21
-317.6689220478257
 31
0.0
  0
LINE
  5
1D2
330
1BF
100
AcDbEntity
  8
Fills_ Pattern_Pen_No__153
  6
Continuous
100
AcDbLine
 10
1476.202439010547
 20
-312.3612457199846
 30
0.0
 11
1477.127123515511
 21
-310.8039663445243
 31
0.0
  0
LINE
  5
1D3
330
1BF
100
AcDbEntity
  8
Fills_ Pattern_Pen_No__153
  6
Continuous
100
AcDbLine
 10
1477.127123515511
 20
-310.8039663445243
 30
0.0
 11
1478.075112204883
 21
-309.2607625563684
 31
0.0
  0
LINE
  5
1D4
330
1BF
100
AcDbEntity
  8
Fills_ Pattern_Pen_No__153
  6
Continuous
100
AcDbLine
 10
1478.075112204883
 20
-309.2607625563684
 30
0.0
 11
1479.046190864748
 21
-307.7319830682444
 31
0.0
  0
LINE
  5
1D5
330
1BF
100
AcDbEntity
  8
Fills_ Pattern_Pen_No__153
  6
Continuous
100
AcDbLine
 10
1479.046190864748
 20
-307.7319830682444
 30
0.0
 11
1480.04014006363
 21
-306.2179733334681
 31
0.0
  0
LINE
  5
1D6
330
1BF
100
AcDbEntity
  8
Fills_ Pattern_Pen_No__153
  6
Continuous
100
AcDbLine
 10
1480.04014006363
 20
-306.2179733334681
 30
0.0
 11
1481.056735202068
 21
-304.7190754678821
 31
0.0
  0
LINE
  5
1D7
330
1BF
100
AcDbEntity
  8
Fills_ Pattern_Pen_No__153
  6
Continuous
100
AcDbLine
 10
1481.056735202068
 20
-304.7190754678821
 30
0.0
 11
1482.095746563375
 21
-303.2356281725493
 31
0.0
  0
LINE
  5
1D8
330
1BF
100
AcDbEntity
  8
Fills_ Pattern_Pen_No__153
  6
Continuous
100
AcDbLine
 10
1482.095746563375
 20
-303.2356281725493
 30
0.0
 11
1483.156939365541
 21
-301.7679666572176
 31
0.0
  0
LINE
  5
1D9
330
1BF
100
AcDbEntity
  8
Fills_ Pattern_Pen_No__153
  6
Continuous
100
AcDbLine
 10
1483.156939365541
 20
-301.7679666572176
 30
0.0
 11
1484.240073814289
 21
-300.3164225645736
 31
0.0
  0
LINE
  5
1DA
330
1BF
100
AcDbEntity
  8
Fills_ Pattern_Pen_No__153
  6
Continuous
100
AcDbLine
 10
1477.431737038297
 20
-313.5905437477349
 30
0.0
 11
1479.329270888829
 21
-310.5473053798233
 31
0.0
  0
LINE
  5
1DB
330
1BF
100
AcDbEntity
  8
Fills_ Pattern_Pen_No__153
  6
Continuous
100
AcDbLine
 10
1479.329270888829
 20
-310.5473053798233
 30
0.0
 11
1481.29802280693
 21
-307.5496479005886
 31
0.0
  0
LINE
  5
1DC
330
1BF
100
AcDbEntity
  8
Fills_ Pattern_Pen_No__153
  6
Continuous
100
AcDbLine
 10
1481.29802280693
 20
-307.5496479005886
 30
0.0
 11
1483.336898412211
 21
-304.5992376335191
 31
0.0
  0
LINE
  5
1DD
330
1BF
100
AcDbEntity
  8
Fills_ Pattern_Pen_No__153
  6
Continuous
100
AcDbLine
 10
1483.336898412211
 20
-304.5992376335191
 30
0.0
 11
1484.35588718114
 21
-303.1965775782912
 31
0.0
  0
LINE
  5
1DE
330
1BF
100
AcDbEntity
  8
Fills_ Pattern_Pen_No__153
  6
Continuous
100
AcDbLine
 10
1481.088399369062
 20
-357.1255854503157
 30
0.0
 11
1481.154664485489
 21
-357.0387514649177
 31
0.0
  0
LINE
  5
1DF
330
1BF
100
AcDbEntity
  8
Fills_ Pattern_Pen_No__153
  6
Continuous
100
AcDbLine
 10
1474.355887181149
 20
-351.0093218388103
 30
0.0
 11
1474.688880078319
 21
-350.5729670577478
 31
0.0
  0
LINE
  5
1E0
330
1BF
100
AcDbEntity
  8
Fills_ Pattern_Pen_No__153
  6
Continuous
100
AcDbLine
 10
1481.154664485489
 20
-357.0387514649177
 30
0.0
 11
1483.396958241121
 21
-354.2398135964948
 31
0.0
  0
LINE
  5
1E1
330
1BF
100
AcDbEntity
  8
Fills_ Pattern_Pen_No__153
  6
Continuous
100
AcDbLine
 10
1474.688880078319
 20
-350.5729670577478
 30
0.0
 11
1476.931173833951
 21
-347.774029189325
 31
0.0
  0
LINE
  5
1E2
330
1BF
100
AcDbEntity
  8
Fills_ Pattern_Pen_No__153
  6
Continuous
100
AcDbLine
 10
1483.396958241121
 20
-354.2398135964948
 30
0.0
 11
1484.35588718114
 21
-353.0990265044959
 31
0.0
  0
LINE
  5
1E3
330
1BF
100
AcDbEntity
  8
Fills_ Pattern_Pen_No__153
  6
Continuous
100
AcDbLine
 10
1476.931173833951
 20
-347.774029189325
 30
0.0
 11
1479.238830361302
 21
-345.0287321508213
 31
0.0
  0
LINE
  5
1E4
330
1BF
100
AcDbEntity
  8
Fills_ Pattern_Pen_No__153
  6
Continuous
100
AcDbLine
 10
1479.238830361302
 20
-345.0287321508213
 30
0.0
 11
1481.610566891308
 21
-342.3386019848118
 31
0.0
  0
LINE
  5
1E5
330
1BF
100
AcDbEntity
  8
Fills_ Pattern_Pen_No__153
  6
Continuous
100
AcDbLine
 10
1474.355887181149
 20
-336.767618085854
 30
0.0
 11
1475.144782484138
 21
-335.8728175776419
 31
0.0
  0
LINE
  5
1E6
330
1BF
100
AcDbEntity
  8
Fills_ Pattern_Pen_No__153
  6
Continuous
100
AcDbLine
 10
1481.610566891308
 20
-342.3386019848118
 30
0.0
 11
1481.95342736893
 21
-341.9538593178633
 31
0.0
  0
LINE
  5
1E7
330
1BF
100
AcDbEntity
  8
Fills_ Pattern_Pen_No__153
  6
Continuous
100
AcDbLine
 10
1475.144782484138
 20
-335.8728175776419
 30
0.0
 11
1475.48764296176
 21
-335.4880749106936
 31
0.0
  0
LINE
  5
1E8
330
1BF
100
AcDbEntity
  8
Fills_ Pattern_Pen_No__153
  6
Continuous
100
AcDbLine
 10
1481.95342736893
 20
-341.9538593178633
 30
0.0
 11
1482.291281095686
 21
-341.5647127051284
 31
0.0
  0
LINE
  5
1E9
330
1BF
100
AcDbEntity
  8
Fills_ Pattern_Pen_No__153
  6
Continuous
100
AcDbLine
 10
1475.48764296176
 20
-335.4880749106936
 30
0.0
 11
1475.825496688516
 21
-335.0989282979586
 31
0.0
  0
LINE
  5
1EA
330
1BF
100
AcDbEntity
  8
Fills_ Pattern_Pen_No__153
  6
Continuous
100
AcDbLine
 10
1482.291281095686
 20
-341.5647127051284
 30
0.0
 11
1482.624071509566
 21
-341.1712272958494
 31
0.0
  0
LINE
  5
1EB
330
1BF
100
AcDbEntity
  8
Fills_ Pattern_Pen_No__153
  6
Continuous
100
AcDbLine
 10
1475.825496688516
 20
-335.0989282979586
 30
0.0
 11
1476.158287102397
 21
-334.7054428886797
 31
0.0
  0
LINE
  5
1EC
330
1BF
100
AcDbEntity
  8
Fills_ Pattern_Pen_No__153
  6
Continuous
100
AcDbLine
 10
1482.624071509566
 20
-341.1712272958494
 30
0.0
 11
1482.951742896239
 21
-340.7734689656515
 31
0.0
  0
LINE
  5
1ED
330
1BF
100
AcDbEntity
  8
Fills_ Pattern_Pen_No__153
  6
Continuous
100
AcDbLine
 10
1476.158287102397
 20
-334.7054428886797
 30
0.0
 11
1476.485958489069
 21
-334.3076845584817
 31
0.0
  0
LINE
  5
1EE
330
1BF
100
AcDbEntity
  8
Fills_ Pattern_Pen_No__153
  6
Continuous
100
AcDbLine
 10
1482.951742896239
 20
-340.7734689656515
 30
0.0
 11
1483.274240398378
 21
-340.3715043055136
 31
0.0
  0
LINE
  5
1EF
330
1BF
100
AcDbEntity
  8
Fills_ Pattern_Pen_No__153
  6
Continuous
100
AcDbLine
 10
1476.485958489069
 20
-334.3076845584817
 30
0.0
 11
1476.808455991209
 21
-333.9057198983438
 31
0.0
  0
LINE
  5
1F0
330
1BF
100
AcDbEntity
  8
Fills_ Pattern_Pen_No__153
  6
Continuous
100
AcDbLine
 10
1483.274240398378
 20
-340.3715043055136
 30
0.0
 11
1483.355887181139
 21
-340.2669967908031
 31
0.0
  0
LINE
  5
1F1
330
1BF
100
AcDbEntity
  8
Fills_ Pattern_Pen_No__153
  6
Continuous
100
AcDbLine
 10
1476.808455991209
 20
-333.9057198983438
 30
0.0
 11
1477.125725617678
 21
-333.4996162034505
 31
0.0
  0
LINE
  5
1F2
330
1BF
100
AcDbEntity
  8
Fills_ Pattern_Pen_No__153
  6
Continuous
100
AcDbLine
 10
1477.125725617678
 20
-333.4996162034505
 30
0.0
 11
1477.437714252568
 21
-333.0894414619257
 31
0.0
  0
LINE
  5
1F3
330
1BF
100
AcDbEntity
  8
Fills_ Pattern_Pen_No__153
  6
Continuous
100
AcDbLine
 10
1477.437714252568
 20
-333.0894414619257
 30
0.0
 11
1477.744369664092
 21
-332.6752643434498
 31
0.0
  0
LINE
  5
1F4
330
1BF
100
AcDbEntity
  8
Fills_ Pattern_Pen_No__153
  6
Continuous
100
AcDbLine
 10
1478.928991435532
 20
-315.087798144969
 30
0.0
 11
1480.637228117839
 21
-312.6816129296637
 31
0.0
  0
LINE
  5
1F5
330
1BF
100
AcDbEntity
  8
Fills_ Pattern_Pen_No__153
  6
Continuous
100
AcDbLine
 10
1480.637228117839
 20
-312.6816129296637
 30
0.0
 11
1482.346317633938
 21
-310.2760333988452
 31
0.0
  0
LINE
  5
1F6
330
1BF
100
AcDbEntity
  8
Fills_ Pattern_Pen_No__153
  6
Continuous
100
AcDbLine
 10
1474.355887181149
 20
-305.9562204487209
 30
0.0
 11
1475.880533226768
 21
-303.8102489916754
 31
0.0
  0
LINE
  5
1F7
330
1BF
100
AcDbEntity
  8
Fills_ Pattern_Pen_No__153
  6
Continuous
100
AcDbLine
 10
1482.346317633938
 20
-310.2760333988452
 30
0.0
 11
1484.056259769075
 21
-307.8710598547876
 31
0.0
  0
LINE
  5
1F8
330
1BF
100
AcDbEntity
  8
Fills_ Pattern_Pen_No__153
  6
Continuous
100
AcDbLine
 10
1475.880533226768
 20
-303.8102489916754
 30
0.0
 11
1477.590475361905
 21
-301.4052754476177
 31
0.0
  0
LINE
  5
1F9
330
1BF
100
AcDbEntity
  8
Fills_ Pattern_Pen_No__153
  6
Continuous
100
AcDbLine
 10
1484.056259769075
 20
-307.8710598547876
 30
0.0
 11
1484.35588718114
 21
-307.4499605808843
 31
0.0
  0
LINE
  5
1FA
330
1BF
100
AcDbEntity
  8
Fills_ Pattern_Pen_No__153
  6
Continuous
100
AcDbLine
 10
1477.590475361905
 20
-301.4052754476177
 30
0.0
 11
1478.581169496375
 21
-300.0129442927007
 31
0.0
  0
LINE
  5
1FB
330
1BF
100
AcDbEntity
  8
Fills_ Pattern_Pen_No__153
  6
Continuous
100
AcDbLine
 10
1474.355887181149
 20
-355.0577832374047
 30
0.0
 11
1474.547132222554
 21
-354.7892071930247
 31
0.0
  0
LINE
  5
1FC
330
1BF
100
AcDbEntity
  8
Fills_ Pattern_Pen_No__153
  6
Continuous
100
AcDbLine
 10
1474.547132222554
 20
-354.7892071930247
 30
0.0
 11
1476.259630925192
 21
-352.3860534221236
 31
0.0
  0
LINE
  5
1FD
330
1BF
100
AcDbEntity
  8
Fills_ Pattern_Pen_No__153
  6
Continuous
100
AcDbLine
 10
1483.956473801781
 20
-357.1255854503157
 30
0.0
 11
1484.35588718114
 21
-356.5655078313875
 31
0.0
  0
LINE
  5
1FE
330
1BF
100
AcDbEntity
  8
Fills_ Pattern_Pen_No__153
  6
Continuous
100
AcDbLine
 10
1476.259630925192
 20
-352.3860534221236
 30
0.0
 11
1477.972981386772
 21
-349.9835068463133
 31
0.0
  0
LINE
  5
1FF
330
1BF
100
AcDbEntity
  8
Fills_ Pattern_Pen_No__153
  6
Continuous
100
AcDbLine
 10
1477.972981386772
 20
-349.9835068463133
 30
0.0
 11
1479.687183392005
 21
-347.5815677674884
 31
0.0
  0
LINE
  5
200
330
1BF
100
AcDbEntity
  8
Fills_ Pattern_Pen_No__153
  6
Continuous
100
AcDbLine
 10
1479.687183392005
 20
-347.5815677674884
 30
0.0
 11
1480.598780797434
 21
-346.3068850365291
 31
0.0
  0
LINE
  5
201
330
1BF
100
AcDbEntity
  8
Fills_ Pattern_Pen_No__153
  6
Continuous
100
AcDbLine
 10
1480.598780797434
 20
-346.3068850365291
 30
0.0
 11
1481.512426780165
 21
-345.0336698495207
 31
0.0
  0
LINE
  5
202
330
1BF
100
AcDbEntity
  8
Fills_ Pattern_Pen_No__153
  6
Continuous
100
AcDbLine
 10
1474.355887181149
 20
-339.5304902339074
 30
0.0
 11
1475.046642372995
 21
-338.5678854423509
 31
0.0
  0
LINE
  5
203
330
1BF
100
AcDbEntity
  8
Fills_ Pattern_Pen_No__153
  6
Continuous
100
AcDbLine
 10
1481.512426780165
 20
-345.0336698495207
 30
0.0
 11
1482.428118977663
 21
-343.7619254987841
 31
0.0
  0
LINE
  5
204
330
1BF
100
AcDbEntity
  8
Fills_ Pattern_Pen_No__153
  6
Continuous
100
AcDbLine
 10
1475.046642372995
 20
-338.5678854423509
 30
0.0
 11
1475.962334570493
 21
-337.2961410916143
 31
0.0
  0
LINE
  5
205
330
1BF
100
AcDbEntity
  8
Fills_ Pattern_Pen_No__153
  6
Continuous
100
AcDbLine
 10
1482.428118977663
 20
-343.7619254987841
 30
0.0
 11
1483.345855022101
 21
-342.4916552728368
 31
0.0
  0
LINE
  5
206
330
1BF
100
AcDbEntity
  8
Fills_ Pattern_Pen_No__153
  6
Continuous
100
AcDbLine
 10
1475.962334570493
 20
-337.2961410916143
 30
0.0
 11
1476.880070614931
 21
-336.0258708656671
 31
0.0
  0
LINE
  5
207
330
1BF
100
AcDbEntity
  8
Fills_ Pattern_Pen_No__153
  6
Continuous
100
AcDbLine
 10
1483.345855022101
 20
-342.4916552728368
 30
0.0
 11
1483.355887181139
 21
-342.477816348675
 31
0.0
  0
LINE
  5
208
330
1BF
100
AcDbEntity
  8
Fills_ Pattern_Pen_No__153
  6
Continuous
100
AcDbLine
 10
1476.880070614931
 20
-336.0258708656671
 30
0.0
 11
1477.799848133199
 21
-334.7570780492154
 31
0.0
  0
LINE
  5
209
330
1BF
100
AcDbEntity
  8
Fills_ Pattern_Pen_No__153
  6
Continuous
100
AcDbLine
 10
1477.799848133199
 20
-334.7570780492154
 30
0.0
 11
1478.721664746905
 21
-333.4897659231449
 31
0.0
  0
LINE
  5
20A
330
1BF
100
AcDbEntity
  8
Fills_ Pattern_Pen_No__153
  6
Continuous
100
AcDbLine
 10
1478.721664746905
 20
-333.4897659231449
 30
0.0
 11
1479.645518072386
 21
-332.2239377645123
 31
0.0
  0
LINE
  5
20B
330
1BF
100
AcDbEntity
  8
Fills_ Pattern_Pen_No__153
  6
Continuous
100
AcDbLine
 10
1479.645518072386
 20
-332.2239377645123
 30
0.0
 11
1480.571405720712
 21
-330.959596846537
 31
0.0
  0
LINE
  5
20C
330
1BF
100
AcDbEntity
  8
Fills_ Pattern_Pen_No__153
  6
Continuous
100
AcDbLine
 10
1480.571405720712
 20
-330.959596846537
 30
0.0
 11
1480.806252333747
 21
-330.6314484473312
 31
0.0
  0
LINE
  5
20D
330
1BF
100
AcDbEntity
  8
Fills_ Pattern_Pen_No__153
  6
Continuous
100
AcDbLine
 10
1480.806252333747
 20
-330.6314484473312
 30
0.0
 11
1481.033343800854
 21
-330.2978862055793
 31
0.0
  0
LINE
  5
20E
330
1BF
100
AcDbEntity
  8
Fills_ Pattern_Pen_No__153
  6
Continuous
100
AcDbLine
 10
1474.355887181149
 20
-324.1430155400373
 30
0.0
 11
1474.567559393684
 21
-323.8321017984095
 31
0.0
  0
LINE
  5
20F
330
1BF
100
AcDbEntity
  8
Fills_ Pattern_Pen_No__153
  6
Continuous
100
AcDbLine
 10
1481.033343800854
 20
-330.2978862055793
 30
0.0
 11
1481.252555370793
 21
-329.9590933615576
 31
0.0
  0
LINE
  5
210
330
1BF
100
AcDbEntity
  8
Fills_ Pattern_Pen_No__153
  6
Continuous
100
AcDbLine
 10
1474.567559393684
 20
-323.8321017984095
 30
0.0
 11
1474.786770963623
 21
-323.4933089543878
 31
0.0
  0
LINE
  5
211
330
1BF
100
AcDbEntity
  8
Fills_ Pattern_Pen_No__153
  6
Continuous
100
AcDbLine
 10
1481.252555370793
 20
-329.9590933615576
 30
0.0
 11
1481.463766621095
 21
-329.6152560289405
 31
0.0
  0
LINE
  5
212
330
1BF
100
AcDbEntity
  8
Fills_ Pattern_Pen_No__153
  6
Continuous
100
AcDbLine
 10
1474.786770963623
 20
-323.4933089543878
 30
0.0
 11
1474.997982213926
 21
-323.1494716217707
 31
0.0
  0
LINE
  5
213
330
1BF
100
AcDbEntity
  8
Fills_ Pattern_Pen_No__153
  6
Continuous
100
AcDbLine
 10
1481.463766621095
 20
-329.6152560289405
 30
0.0
 11
1481.666861524216
 21
-329.2665630925597
 31
0.0
  0
LINE
  5
214
330
1BF
100
AcDbEntity
  8
Fills_ Pattern_Pen_No__153
  6
Continuous
100
AcDbLine
 10
1474.997982213926
 20
-323.1494716217707
 30
0.0
 11
1475.201077117046
 21
-322.8007786853898
 31
0.0
  0
LINE
  5
215
330
1BF
100
AcDbEntity
  8
Fills_ Pattern_Pen_No__153
  6
Continuous
100
AcDbLine
 10
1481.666861524216
 20
-329.2665630925597
 30
0.0
 11
1481.861728511274
 21
-328.9132061046416
 31
0.0
  0
LINE
  5
216
330
1BF
100
AcDbEntity
  8
Fills_ Pattern_Pen_No__153
  6
Continuous
100
AcDbLine
 10
1475.201077117046
 20
-322.8007786853898
 30
0.0
 11
1475.395944104104
 21
-322.4474216974718
 31
0.0
  0
LINE
  5
217
330
1BF
100
AcDbEntity
  8
Fills_ Pattern_Pen_No__153
  6
Continuous
100
AcDbLine
 10
1481.861728511274
 20
-328.9132061046416
 30
0.0
 11
1482.04826053334
 21
-328.5553791795795
 31
0.0
  0
LINE
  5
218
330
1BF
100
AcDbEntity
  8
Fills_ Pattern_Pen_No__153
  6
Continuous
100
AcDbLine
 10
1475.395944104104
 20
-322.4474216974718
 30
0.0
 11
1475.58247612617
 21
-322.0895947724097
 31
0.0
  0
LINE
  5
219
330
1BF
100
AcDbEntity
  8
Fills_ Pattern_Pen_No__153
  6
Continuous
100
AcDbLine
 10
1482.04826053334
 20
-328.5553791795795
 30
0.0
 11
1482.226355120244
 21
-328.1932788872976
 31
0.0
  0
LINE
  5
21A
330
1BF
100
AcDbEntity
  8
Fills_ Pattern_Pen_No__153
  6
Continuous
100
AcDbLine
 10
1475.58247612617
 20
-322.0895947724097
 30
0.0
 11
1475.760570713075
 21
-321.7274944801277
 31
0.0
  0
LINE
  5
21B
330
1BF
100
AcDbEntity
  8
Fills_ Pattern_Pen_No__153
  6
Continuous
100
AcDbLine
 10
1480.229146026736
 20
-316.3879527361729
 30
0.0
 11
1481.784709262569
 21
-313.985876140347
 31
0.0
  0
LINE
  5
21C
330
1BF
100
AcDbEntity
  8
Fills_ Pattern_Pen_No__153
  6
Continuous
100
AcDbLine
 10
1474.355887181149
 20
-309.0071995568436
 30
0.0
 11
1475.3189248554
 21
-307.5200917331772
 31
0.0
  0
LINE
  5
21D
330
1BF
100
AcDbEntity
  8
Fills_ Pattern_Pen_No__153
  6
Continuous
100
AcDbLine
 10
1481.784709262569
 20
-313.985876140347
 30
0.0
 11
1483.365574611251
 21
-311.6003754167607
 31
0.0
  0
LINE
  5
21E
330
1BF
100
AcDbEntity
  8
Fills_ Pattern_Pen_No__153
  6
Continuous
100
AcDbLine
 10
1475.3189248554
 20
-307.5200917331772
 30
0.0
 11
1476.899790204081
 21
-305.134591009591
 31
0.0
  0
LINE
  5
21F
330
1BF
100
AcDbEntity
  8
Fills_ Pattern_Pen_No__153
  6
Continuous
100
AcDbLine
 10
1483.365574611251
 20
-311.6003754167607
 30
0.0
 11
1484.35588718114
 21
-310.1397742339607
 31
0.0
  0
LINE
  5
220
330
1BF
100
AcDbEntity
  8
Fills_ Pattern_Pen_No__153
  6
Continuous
100
AcDbLine
 10
1476.899790204081
 20
-305.134591009591
 30
0.0
 11
1478.505781051777
 21
-302.7659326657161
 31
0.0
  0
LINE
  5
221
330
1BF
100
AcDbEntity
  8
Fills_ Pattern_Pen_No__153
  6
Continuous
100
AcDbLine
 10
1478.505781051777
 20
-302.7659326657161
 30
0.0
 11
1480.136717977641
 21
-300.4143813273981
 31
0.0
  0
LINE
  5
222
330
1BF
100
AcDbEntity
  8
Fills_ Pattern_Pen_No__153
  6
Continuous
100
AcDbLine
 10
1474.721346134905
 20
-357.1255854503157
 30
0.0
 11
1475.326634366688
 21
-356.272259373821
 31
0.0
  0
LINE
  5
223
330
1BF
100
AcDbEntity
  8
Fills_ Pattern_Pen_No__153
  6
Continuous
100
AcDbLine
 10
1480.136717977641
 20
-300.4143813273981
 30
0.0
 11
1481.43286123057
 21
-298.5870984256018
 31
0.0
  0
LINE
  5
224
330
1BF
100
AcDbEntity
  8
Fills_ Pattern_Pen_No__153
  6
Continuous
100
AcDbLine
 10
1475.326634366688
 20
-356.272259373821
 30
0.0
 11
1477.006914058828
 21
-353.9557082500436
 31
0.0
  0
LINE
  5
225
330
1BF
100
AcDbEntity
  8
Fills_ Pattern_Pen_No__153
  6
Continuous
100
AcDbLine
 10
1477.006914058828
 20
-353.9557082500436
 30
0.0
 11
1478.711584926516
 21
-351.6570464250358
 31
0.0
  0
LINE
  5
226
330
1BF
100
AcDbEntity
  8
Fills_ Pattern_Pen_No__153
  6
Continuous
100
AcDbLine
 10
1478.711584926516
 20
-351.6570464250358
 30
0.0
 11
1480.4404565244
 21
-349.3765307046512
 31
0.0
  0
LINE
  5
227
330
1BF
100
AcDbEntity
  8
Fills_ Pattern_Pen_No__153
  6
Continuous
100
AcDbLine
 10
1480.4404565244
 20
-349.3765307046512
 30
0.0
 11
1481.778805529824
 21
-347.126028254266
 31
0.0
  0
LINE
  5
228
330
1BF
100
AcDbEntity
  8
Fills_ Pattern_Pen_No__153
  6
Continuous
100
AcDbLine
 10
1474.355887181149
 20
-342.2697136281288
 30
0.0
 11
1475.313021122654
 21
-340.6602438470961
 31
0.0
  0
LINE
  5
229
330
1BF
100
AcDbEntity
  8
Fills_ Pattern_Pen_No__153
  6
Continuous
100
AcDbLine
 10
1481.778805529824
 20
-347.126028254266
 30
0.0
 11
1483.135638707648
 21
-344.8866213981841
 31
0.0
  0
LINE
  5
22A
330
1BF
100
AcDbEntity
  8
Fills_ Pattern_Pen_No__153
  6
Continuous
100
AcDbLine
 10
1475.313021122654
 20
-340.6602438470961
 30
0.0
 11
1476.669854300478
 21
-338.4208369910143
 31
0.0
  0
LINE
  5
22B
330
1BF
100
AcDbEntity
  8
Fills_ Pattern_Pen_No__153
  6
Continuous
100
AcDbLine
 10
1483.135638707648
 20
-344.8866213981841
 30
0.0
 11
1483.595168731931
 21
-344.1420844014189
 31
0.0
  0
LINE
  5
22C
330
1BF
100
AcDbEntity
  8
Fills_ Pattern_Pen_No__153
  6
Continuous
100
AcDbLine
 10
1476.669854300478
 20
-338.4208369910143
 30
0.0
 11
1478.045079668463
 21
-336.1926775427796
 31
0.0
  0
LINE
  5
22D
330
1BF
100
AcDbEntity
  8
Fills_ Pattern_Pen_No__153
  6
Continuous
100
AcDbLine
 10
1478.045079668463
 20
-336.1926775427796
 30
0.0
 11
1479.438603997533
 21
-333.9759165534533
 31
0.0
  0
LINE
  5
22E
330
1BF
100
AcDbEntity
  8
Fills_ Pattern_Pen_No__153
  6
Continuous
100
AcDbLine
 10
1479.438603997533
 20
-333.9759165534533
 30
0.0
 11
1480.850332818089
 21
-331.7707043013736
 31
0.0
  0
LINE
  5
22F
330
1BF
100
AcDbEntity
  8
Fills_ Pattern_Pen_No__153
  6
Continuous
100
AcDbLine
 10
1474.355887181149
 20
-325.3496905995462
 30
0.0
 11
1474.384548410919
 21
-325.3049198942039
 31
0.0
  0
LINE
  5
230
330
1BF
100
AcDbEntity
  8
Fills_ Pattern_Pen_No__153
  6
Continuous
100
AcDbLine
 10
1480.850332818089
 20
-331.7707043013736
 30
0.0
 11
1482.280170426415
 21
-329.577190281969
 31
0.0
  0
LINE
  5
231
330
1BF
100
AcDbEntity
  8
Fills_ Pattern_Pen_No__153
  6
Continuous
100
AcDbLine
 10
1474.384548410919
 20
-325.3049198942039
 30
0.0
 11
1475.814386019245
 21
-323.1114058747992
 31
0.0
  0
LINE
  5
232
330
1BF
100
AcDbEntity
  8
Fills_ Pattern_Pen_No__153
  6
Continuous
100
AcDbLine
 10
1482.280170426415
 20
-329.577190281969
 30
0.0
 11
1483.355887181139
 21
-327.956264976546
 31
0.0
  0
LINE
  5
233
330
1BF
100
AcDbEntity
  8
Fills_ Pattern_Pen_No__153
  6
Continuous
100
AcDbLine
 10
1475.814386019245
 20
-323.1114058747992
 30
0.0
 11
1477.262235483999
 21
-320.9297387904528
 31
0.0
  0
LINE
  5
234
330
1BF
100
AcDbEntity
  8
Fills_ Pattern_Pen_No__153
  6
Continuous
100
AcDbLine
 10
1477.262235483999
 20
-320.9297387904528
 30
0.0
 11
1478.72799865278
 21
-318.7600665404221
 31
0.0
  0
LINE
  5
235
330
1BF
100
AcDbEntity
  8
Fills_ Pattern_Pen_No__153
  6
Continuous
100
AcDbLine
 10
1482.967942984754
 20
-314.5201222084481
 30
0.0
 11
1484.347171945157
 21
-312.4608720651773
 31
0.0
  0
LINE
  5
236
330
1BF
100
AcDbEntity
  8
Fills_ Pattern_Pen_No__153
  6
Continuous
100
AcDbLine
 10
1476.502158577584
 20
-308.0543378012783
 30
0.0
 11
1477.881387537987
 21
-305.9950876580075
 31
0.0
  0
LINE
  5
237
330
1BF
100
AcDbEntity
  8
Fills_ Pattern_Pen_No__153
  6
Continuous
100
AcDbLine
 10
1477.881387537987
 20
-305.9950876580075
 30
0.0
 11
1479.288531402294
 21
-303.954810759418
 31
0.0
  0
LINE
  5
238
330
1BF
100
AcDbEntity
  8
Fills_ Pattern_Pen_No__153
  6
Continuous
100
AcDbLine
 10
1479.288531402294
 20
-303.954810759418
 30
0.0
 11
1480.723329204991
 21
-301.9338854903521
 31
0.0
  0
LINE
  5
239
330
1BF
100
AcDbEntity
  8
Fills_ Pattern_Pen_No__153
  6
Continuous
100
AcDbLine
 10
1480.723329204991
 20
-301.9338854903521
 30
0.0
 11
1482.185514851932
 21
-299.9326866467452
 31
0.0
  0
LINE
  5
23A
330
1BF
100
AcDbEntity
  8
Fills_ Pattern_Pen_No__153
  6
Continuous
100
AcDbLine
 10
1476.470854377993
 20
-357.1255854503157
 30
0.0
 11
1477.209032762517
 21
-356.1436450306461
 31
0.0
  0
LINE
  5
23B
330
1BF
100
AcDbEntity
  8
Fills_ Pattern_Pen_No__153
  6
Continuous
100
AcDbLine
 10
1482.185514851932
 20
-299.9326866467452
 30
0.0
 11
1483.674817169687
 21
-297.9515853661177
 31
0.0
  0
LINE
  5
23C
330
1BF
100
AcDbEntity
  8
Fills_ Pattern_Pen_No__153
  6
Continuous
100
AcDbLine
 10
1477.209032762517
 20
-356.1436450306461
 30
0.0
 11
1478.725175548662
 21
-354.1830087232722
 31
0.0
  0
LINE
  5
23D
330
1BF
100
AcDbEntity
  8
Fills_ Pattern_Pen_No__153
  6
Continuous
100
AcDbLine
 10
1483.674817169687
 20
-297.9515853661177
 30
0.0
 11
1484.286870716722
 21
-297.1600936825243
 31
0.0
  0
LINE
  5
23E
330
1BF
100
AcDbEntity
  8
Fills_ Pattern_Pen_No__153
  6
Continuous
100
AcDbLine
 10
1478.725175548662
 20
-354.1830087232722
 30
0.0
 11
1480.267877623008
 21
-352.243201004042
 31
0.0
  0
LINE
  5
23F
330
1BF
100
AcDbEntity
  8
Fills_ Pattern_Pen_No__153
  6
Continuous
100
AcDbLine
 10
1480.267877623008
 20
-352.243201004042
 30
0.0
 11
1481.836852879739
 21
-350.3245816250255
 31
0.0
  0
LINE
  5
240
330
1BF
100
AcDbEntity
  8
Fills_ Pattern_Pen_No__153
  6
Continuous
100
AcDbLine
 10
1474.355887181149
 20
-345.10021035715
 30
0.0
 11
1475.371068472569
 21
-343.8587972178557
 31
0.0
  0
LINE
  5
241
330
1BF
100
AcDbEntity
  8
Fills_ Pattern_Pen_No__153
  6
Continuous
100
AcDbLine
 10
1481.836852879739
 20
-350.3245816250255
 30
0.0
 11
1482.368152774323
 21
-349.7206040575671
 31
0.0
  0
LINE
  5
242
330
1BF
100
AcDbEntity
  8
Fills_ Pattern_Pen_No__153
  6
Continuous
100
AcDbLine
 10
1475.371068472569
 20
-343.8587972178557
 30
0.0
 11
1475.902368367153
 21
-343.2548196503973
 31
0.0
  0
LINE
  5
243
330
1BF
100
AcDbEntity
  8
Fills_ Pattern_Pen_No__153
  6
Continuous
100
AcDbLine
 10
1482.368152774323
 20
-349.7206040575671
 30
0.0
 11
1482.864292019333
 21
-349.0874260971656
 31
0.0
  0
LINE
  5
244
330
1BF
100
AcDbEntity
  8
Fills_ Pattern_Pen_No__153
  6
Continuous
100
AcDbLine
 10
1475.902368367153
 20
-343.2548196503973
 30
0.0
 11
1476.398507612163
 21
-342.6216416899958
 31
0.0
  0
LINE
  5
245
330
1BF
100
AcDbEntity
  8
Fills_ Pattern_Pen_No__153
  6
Continuous
100
AcDbLine
 10
1482.864292019333
 20
-349.0874260971656
 30
0.0
 11
1483.323668926105
 21
-348.4270918352176
 31
0.0
  0
LINE
  5
246
330
1BF
100
AcDbEntity
  8
Fills_ Pattern_Pen_No__153
  6
Continuous
100
AcDbLine
 10
1476.398507612163
 20
-342.6216416899958
 30
0.0
 11
1476.857884518935
 21
-341.9613074280478
 31
0.0
  0
LINE
  5
247
330
1BF
100
AcDbEntity
  8
Fills_ Pattern_Pen_No__153
  6
Continuous
100
AcDbLine
 10
1483.323668926105
 20
-348.4270918352176
 30
0.0
 11
1483.744800486002
 21
-347.7417330319361
 31
0.0
  0
LINE
  5
248
330
1BF
100
AcDbEntity
  8
Fills_ Pattern_Pen_No__153
  6
Continuous
100
AcDbLine
 10
1476.857884518935
 20
-341.9613074280478
 30
0.0
 11
1477.279016078833
 21
-341.2759486247662
 31
0.0
  0
LINE
  5
249
330
1BF
100
AcDbEntity
  8
Fills_ Pattern_Pen_No__153
  6
Continuous
100
AcDbLine
 10
1483.744800486002
 20
-347.7417330319361
 30
0.0
 11
1484.126327158025
 21
-347.0335622343788
 31
0.0
  0
LINE
  5
24A
330
1BF
100
AcDbEntity
  8
Fills_ Pattern_Pen_No__153
  6
Continuous
100
AcDbLine
 10
1477.279016078833
 20
-341.2759486247662
 30
0.0
 11
1477.660542750855
 21
-340.5677778272089
 31
0.0
  0
LINE
  5
24B
330
1BF
100
AcDbEntity
  8
Fills_ Pattern_Pen_No__153
  6
Continuous
100
AcDbLine
 10
1484.126327158025
 20
-347.0335622343788
 30
0.0
 11
1484.35588718114
 21
-346.5425599757161
 31
0.0
  0
LINE
  5
24C
330
1BF
100
AcDbEntity
  8
Fills_ Pattern_Pen_No__153
  6
Continuous
100
AcDbLine
 10
1477.660542750855
 20
-340.5677778272089
 30
0.0
 11
1478.001232850647
 21
-339.8390812265024
 31
0.0
  0
LINE
  5
24D
330
1BF
100
AcDbEntity
  8
Fills_ Pattern_Pen_No__153
  6
Continuous
100
AcDbLine
 10
1478.001232850647
 20
-339.8390812265024
 30
0.0
 11
1478.299986526752
 21
-339.0922112773204
 31
0.0
  0
LINE
  5
24E
330
1BF
100
AcDbEntity
  8
Fills_ Pattern_Pen_No__153
  6
Continuous
100
AcDbLine
 10
1478.299986526752
 20
-339.0922112773204
 30
0.0
 11
1478.555839311269
 21
-338.3295791034431
 31
0.0
  0
LINE
  5
24F
330
1BF
100
AcDbEntity
  8
Fills_ Pattern_Pen_No__153
  6
Continuous
100
AcDbLine
 10
1478.555839311269
 20
-338.3295791034431
 30
0.0
 11
1479.613462345464
 21
-336.4651696825303
 31
0.0
  0
LINE
  5
250
330
1BF
100
AcDbEntity
  8
Fills_ Pattern_Pen_No__153
  6
Continuous
100
AcDbLine
 10
1479.613462345464
 20
-336.4651696825303
 30
0.0
 11
1480.693090072566
 21
-334.6134156648156
 31
0.0
  0
LINE
  5
251
330
1BF
100
AcDbEntity
  8
Fills_ Pattern_Pen_No__153
  6
Continuous
100
AcDbLine
 10
1480.693090072566
 20
-334.6134156648156
 30
0.0
 11
1481.794571080745
 21
-332.7745767485778
 31
0.0
  0
LINE
  5
252
330
1BF
100
AcDbEntity
  8
Fills_ Pattern_Pen_No__153
  6
Continuous
100
AcDbLine
 10
1474.355887181149
 20
-327.9329741792942
 30
0.0
 11
1475.328786673575
 21
-326.308792341408
 31
0.0
  0
LINE
  5
253
330
1BF
100
AcDbEntity
  8
Fills_ Pattern_Pen_No__153
  6
Continuous
100
AcDbLine
 10
1481.794571080745
 20
-332.7745767485778
 30
0.0
 11
1482.917750893369
 21
-330.948910820824
 31
0.0
  0
LINE
  5
254
330
1BF
100
AcDbEntity
  8
Fills_ Pattern_Pen_No__153
  6
Continuous
100
AcDbLine
 10
1475.328786673575
 20
-326.308792341408
 30
0.0
 11
1476.451966486199
 21
-324.4831264136542
 31
0.0
  0
LINE
  5
255
330
1BF
100
AcDbEntity
  8
Fills_ Pattern_Pen_No__153
  6
Continuous
100
AcDbLine
 10
1482.917750893369
 20
-330.948910820824
 30
0.0
 11
1483.355887181139
 21
-330.2552861906266
 31
0.0
  0
LINE
  5
256
330
1BF
100
AcDbEntity
  8
Fills_ Pattern_Pen_No__153
  6
Continuous
100
AcDbLine
 10
1476.451966486199
 20
-324.4831264136542
 30
0.0
 11
1477.596687583502
 21
-322.6708895139526
 31
0.0
  0
LINE
  5
257
330
1BF
100
AcDbEntity
  8
Fills_ Pattern_Pen_No__153
  6
Continuous
100
AcDbLine
 10
1477.596687583502
 20
-322.6708895139526
 30
0.0
 11
1478.762789424667
 21
-320.8723357985246
 31
0.0
  0
LINE
  5
258
330
1BF
100
AcDbEntity
  8
Fills_ Pattern_Pen_No__153
  6
Continuous
100
AcDbLine
 10
1478.762789424667
 20
-320.8723357985246
 30
0.0
 11
1479.950108470349
 21
-319.0877175046002
 31
0.0
  0
LINE
  5
259
330
1BF
100
AcDbEntity
  8
Fills_ Pattern_Pen_No__153
  6
Continuous
100
AcDbLine
 10
1479.950108470349
 20
-319.0877175046002
 30
0.0
 11
1481.158478205606
 21
-317.3172849150437
 31
0.0
  0
LINE
  5
25A
330
1BF
100
AcDbEntity
  8
Fills_ Pattern_Pen_No__153
  6
Continuous
100
AcDbLine
 10
1474.355887181149
 20
-311.3449698444733
 30
0.0
 11
1474.692693798436
 21
-310.8515005078739
 31
0.0
  0
LINE
  5
25B
330
1BF
100
AcDbEntity
  8
Fills_ Pattern_Pen_No__153
  6
Continuous
100
AcDbLine
 10
1484.240073814289
 20
-300.3164225645735
 30
0.0
 11
1484.35588718114
 21
-300.1650517314144
 31
0.0
  0
LINE
  5
25C
330
1BF
100
AcDbEntity
  8
Fills_ Pattern_Pen_No__153
  6
Continuous
100
AcDbLine
 10
1478.839817952323
 20
-357.1255854503157
 30
0.0
 11
1479.104535133137
 21
-356.7859937205375
 31
0.0
  0
LINE
  5
25D
330
1BF
100
AcDbEntity
  8
Fills_ Pattern_Pen_No__153
  6
Continuous
100
AcDbLine
 10
1479.104535133137
 20
-356.7859937205375
 30
0.0
 11
1479.781271541065
 21
-355.9338305483723
 31
0.0
  0
LINE
  5
25E
330
1BF
100
AcDbEntity
  8
Fills_ Pattern_Pen_No__153
  6
Continuous
100
AcDbLine
 10
1479.781271541065
 20
-355.9338305483723
 30
0.0
 11
1480.465676915839
 21
-355.0878142832857
 31
0.0
  0
LINE
  5
25F
330
1BF
100
AcDbEntity
  8
Fills_ Pattern_Pen_No__153
  6
Continuous
100
AcDbLine
 10
1480.465676915839
 20
-355.0878142832857
 30
0.0
 11
1481.157695427011
 21
-354.2480139391524
 31
0.0
  0
LINE
  5
260
330
1BF
100
AcDbEntity
  8
Fills_ Pattern_Pen_No__153
  6
Continuous
100
AcDbLine
 10
1474.355887181149
 20
-348.1900118829098
 30
0.0
 11
1474.691911019841
 21
-347.7822295319827
 31
0.0
  0
LINE
  5
261
330
1BF
100
AcDbEntity
  8
Fills_ Pattern_Pen_No__153
  6
Continuous
100
AcDbLine
 10
1481.157695427011
 20
-354.2480139391524
 30
0.0
 11
1481.85727062309
 21
-353.4144980227829
 31
0.0
  0
LINE
  5
262
330
1BF
100
AcDbEntity
  8
Fills_ Pattern_Pen_No__153
  6
Continuous
100
AcDbLine
 10
1474.691911019841
 20
-347.7822295319827
 30
0.0
 11
1475.391486215921
 21
-346.9487136156132
 31
0.0
  0
LINE
  5
263
330
1BF
100
AcDbEntity
  8
Fills_ Pattern_Pen_No__153
  6
Continuous
100
AcDbLine
 10
1481.85727062309
 20
-353.4144980227829
 30
0.0
 11
1482.56434543615
 21
-352.5873345283346
 31
0.0
  0
LINE
  5
264
330
1BF
100
AcDbEntity
  8
Fills_ Pattern_Pen_No__153
  6
Continuous
100
AcDbLine
 10
1475.391486215921
 20
-346.9487136156132
 30
0.0
 11
1476.09856102898
 21
-346.1215501211648
 31
0.0
  0
LINE
  5
265
330
1BF
100
AcDbEntity
  8
Fills_ Pattern_Pen_No__153
  6
Continuous
100
AcDbLine
 10
1482.56434543615
 20
-352.5873345283346
 30
0.0
 11
1483.278862186479
 21
-351.7665909317655
 31
0.0
  0
LINE
  5
266
330
1BF
100
AcDbEntity
  8
Fills_ Pattern_Pen_No__153
  6
Continuous
100
AcDbLine
 10
1476.09856102898
 20
-346.1215501211648
 30
0.0
 11
1476.81307777931
 21
-345.3008065245957
 31
0.0
  0
LINE
  5
267
330
1BF
100
AcDbEntity
  8
Fills_ Pattern_Pen_No__153
  6
Continuous
100
AcDbLine
 10
1483.278862186479
 20
-351.7665909317655
 30
0.0
 11
1484.35588718114
 21
-350.7004970552142
 31
0.0
  0
LINE
  5
268
330
1BF
100
AcDbEntity
  8
Fills_ Pattern_Pen_No__153
  6
Continuous
100
AcDbLine
 10
1476.81307777931
 20
-345.3008065245957
 30
0.0
 11
1477.995299553507
 21
-344.1305835488557
 31
0.0
  0
LINE
  5
269
330
1BF
100
AcDbEntity
  8
Fills_ Pattern_Pen_No__153
  6
Continuous
100
AcDbLine
 10
1477.995299553507
 20
-344.1305835488557
 30
0.0
 11
1479.09896705906
 21
-342.8860000146865
 31
0.0
  0
LINE
  5
26A
330
1BF
100
AcDbEntity
  8
Fills_ Pattern_Pen_No__153
  6
Continuous
100
AcDbLine
 10
1479.09896705906
 20
-342.8860000146865
 30
0.0
 11
1480.119413553708
 21
-341.5723185129905
 31
0.0
  0
LINE
  5
26B
330
1BF
100
AcDbEntity
  8
Fills_ Pattern_Pen_No__153
  6
Continuous
100
AcDbLine
 10
1480.119413553708
 20
-341.5723185129905
 30
0.0
 11
1481.052324186505
 21
-340.1950938081764
 31
0.0
  0
LINE
  5
26C
330
1BF
100
AcDbEntity
  8
Fills_ Pattern_Pen_No__153
  6
Continuous
100
AcDbLine
 10
1474.355887181149
 20
-334.0698141024049
 30
0.0
 11
1474.586539779336
 21
-333.7293094010066
 31
0.0
  0
LINE
  5
26D
330
1BF
100
AcDbEntity
  8
Fills_ Pattern_Pen_No__153
  6
Continuous
100
AcDbLine
 10
1481.052324186505
 20
-340.1950938081764
 30
0.0
 11
1481.893754242716
 21
-338.760149350421
 31
0.0
  0
LINE
  5
26E
330
1BF
100
AcDbEntity
  8
Fills_ Pattern_Pen_No__153
  6
Continuous
100
AcDbLine
 10
1474.586539779336
 20
-333.7293094010066
 30
0.0
 11
1475.427969835546
 21
-332.2943649432512
 31
0.0
  0
LINE
  5
26F
330
1BF
100
AcDbEntity
  8
Fills_ Pattern_Pen_No__153
  6
Continuous
100
AcDbLine
 10
1481.893754242716
 20
-338.760149350421
 30
0.0
 11
1482.640145823623
 21
-337.273552651821
 31
0.0
  0
LINE
  5
270
330
1BF
100
AcDbEntity
  8
Fills_ Pattern_Pen_No__153
  6
Continuous
100
AcDbLine
 10
1475.427969835546
 20
-332.2943649432512
 30
0.0
 11
1476.174361416453
 21
-330.8077682446511
 31
0.0
  0
LINE
  5
271
330
1BF
100
AcDbEntity
  8
Fills_ Pattern_Pen_No__153
  6
Continuous
100
AcDbLine
 10
1482.640145823623
 20
-337.273552651821
 30
0.0
 11
1483.288342890731
 21
-335.7415896305542
 31
0.0
  0
LINE
  5
272
330
1BF
100
AcDbEntity
  8
Fills_ Pattern_Pen_No__153
  6
Continuous
100
AcDbLine
 10
1476.174361416453
 20
-330.8077682446511
 30
0.0
 11
1476.822558483562
 21
-329.2758052233843
 31
0.0
  0
LINE
  5
273
330
1BF
100
AcDbEntity
  8
Fills_ Pattern_Pen_No__153
  6
Continuous
100
AcDbLine
 10
1483.288342890731
 20
-335.7415896305542
 30
0.0
 11
1483.355887181139
 21
-335.5477115413124
 31
0.0
  0
LINE
  5
274
330
1BF
100
AcDbEntity
  8
Fills_ Pattern_Pen_No__153
  6
Continuous
100
AcDbLine
 10
1476.822558483562
 20
-329.2758052233843
 30
0.0
 11
1477.369820203578
 21
-327.7049536243648
 31
0.0
  0
LINE
  5
275
330
1BF
100
AcDbEntity
  8
Fills_ Pattern_Pen_No__153
  6
Continuous
100
AcDbLine
 10
1477.369820203578
 20
-327.7049536243648
 30
0.0
 11
1477.463060361198
 21
-327.4238464283913
 31
0.0
  0
LINE
  5
276
330
1BF
100
AcDbEntity
  8
Fills_ Pattern_Pen_No__153
  6
Continuous
100
AcDbLine
 10
1477.463060361198
 20
-327.4238464283913
 30
0.0
 11
1477.566109598457
 21
-327.1461850567146
 31
0.0
  0
LINE
  5
277
330
1BF
100
AcDbEntity
  8
Fills_ Pattern_Pen_No__153
  6
Continuous
100
AcDbLine
 10
1477.566109598457
 20
-327.1461850567146
 30
0.0
 11
1477.678840927104
 21
-326.872311673264
 31
0.0
  0
LINE
  5
278
330
1BF
100
AcDbEntity
  8
Fills_ Pattern_Pen_No__153
  6
Continuous
100
AcDbLine
 10
1477.678840927104
 20
-326.872311673264
 30
0.0
 11
1477.801115427583
 21
-326.6025637740067
 31
0.0
  0
LINE
  5
279
330
1BF
100
AcDbEntity
  8
Fills_ Pattern_Pen_No__153
  6
Continuous
100
AcDbLine
 10
1477.801115427583
 20
-326.6025637740067
 30
0.0
 11
1477.932782420224
 21
-326.3372737710481
 31
0.0
  0
LINE
  5
27A
330
1BF
100
AcDbEntity
  8
Fills_ Pattern_Pen_No__153
  6
Continuous
100
AcDbLine
 10
1477.932782420224
 20
-326.3372737710481
 30
0.0
 11
1478.073679650931
 21
-326.0767685829993
 31
0.0
  0
LINE
  5
27B
330
1BF
100
AcDbEntity
  8
Fills_ Pattern_Pen_No__153
  6
Continuous
100
AcDbLine
 10
1478.073679650931
 20
-326.0767685829993
 30
0.0
 11
1478.22363349112
 21
-325.821369232112
 31
0.0
  0
LINE
  5
27C
330
1BF
100
AcDbEntity
  8
Fills_ Pattern_Pen_No__153
  6
Continuous
100
AcDbLine
 10
1478.22363349112
 20
-325.821369232112
 30
0.0
 11
1478.38245915169
 21
-325.5713904486816
 31
0.0
  0
LINE
  5
27D
330
1BF
100
AcDbEntity
  8
Fills_ Pattern_Pen_No__153
  6
Continuous
100
AcDbLine
 10
1478.38245915169
 20
-325.5713904486816
 30
0.0
 11
1478.897214876141
 21
-324.715230376079
 31
0.0
  0
LINE
  5
27E
330
1BF
100
AcDbEntity
  8
Fills_ Pattern_Pen_No__153
  6
Continuous
100
AcDbLine
 10
1478.897214876141
 20
-324.715230376079
 30
0.0
 11
1479.418013405869
 21
-323.8627326240545
 31
0.0
  0
LINE
  5
27F
330
1BF
100
AcDbEntity
  8
Fills_ Pattern_Pen_No__153
  6
Continuous
100
AcDbLine
 10
1479.418013405869
 20
-323.8627326240545
 30
0.0
 11
1479.944828685861
 21
-323.0139398421925
 31
0.0
  0
LINE
  5
280
330
1BF
100
AcDbEntity
  8
Fills_ Pattern_Pen_No__153
  6
Continuous
100
AcDbLine
 10
1479.944828685861
 20
-323.0139398421925
 30
0.0
 11
1480.47763436009
 21
-322.1688944947214
 31
0.0
  0
LINE
  5
281
330
1BF
100
AcDbEntity
  8
Fills_ Pattern_Pen_No__153
  6
Continuous
100
AcDbLine
 10
1480.47763436009
 20
-322.1688944947214
 30
0.0
 11
1481.016403772838
 21
-321.3276388583893
 31
0.0
  0
LINE
  5
282
330
1BF
100
AcDbEntity
  8
Fills_ Pattern_Pen_No__153
  6
Continuous
100
AcDbLine
 10
1474.355887181149
 20
-315.1659169015484
 30
0.0
 11
1474.550619365668
 21
-314.8618544512195
 31
0.0
  0
LINE
  5
283
330
1BF
100
AcDbEntity
  8
Fills_ Pattern_Pen_No__153
  6
Continuous
100
AcDbLine
 10
1481.016403772838
 20
-321.3276388583893
 30
0.0
 11
1481.561109970027
 21
-320.490215020349
 31
0.0
  0
LINE
  5
284
330
1BF
100
AcDbEntity
  8
Fills_ Pattern_Pen_No__153
  6
Continuous
100
AcDbLine
 10
1474.550619365668
 20
-314.8618544512195
 30
0.0
 11
1475.095325562857
 21
-314.0244306131791
 31
0.0
  0
LINE
  5
285
330
1BF
100
AcDbEntity
  8
Fills_ Pattern_Pen_No__153
  6
Continuous
100
AcDbLine
 10
1481.561109970027
 20
-320.490215020349
 30
0.0
 11
1482.111725700566
 21
-319.6566648760523
 31
0.0
  0
LINE
  5
286
330
1BF
100
AcDbEntity
  8
Fills_ Pattern_Pen_No__153
  6
Continuous
100
AcDbLine
 10
1475.095325562857
 20
-314.0244306131791
 30
0.0
 11
1475.645941293396
 21
-313.1908804688825
 31
0.0
  0
LINE
  5
287
330
1BF
100
AcDbEntity
  8
Fills_ Pattern_Pen_No__153
  6
Continuous
100
AcDbLine
 10
1482.111725700566
 20
-319.6566648760523
 30
0.0
 11
1482.668223417717
 21
-318.8270301271544
 31
0.0
  0
LINE
  5
288
330
1BF
100
AcDbEntity
  8
Fills_ Pattern_Pen_No__153
  6
Continuous
100
AcDbLine
 10
1475.645941293396
 20
-313.1908804688825
 30
0.0
 11
1476.202439010547
 21
-312.3612457199846
 31
0.0
  0
LINE
  5
289
330
1BF
100
AcDbEntity
  8
Fills_ Pattern_Pen_No__153
  6
Continuous
100
AcDbLine
 10
1477.431737038297
 20
-313.590543747735
 30
0.0
 11
1476.91269681449
 21
-315.276421334402
 31
0.0
  0
LINE
  5
28A
330
1BF
100
AcDbEntity
  8
Fills_ Pattern_Pen_No__153
  6
Continuous
100
AcDbLine
 10
1483.355887181139
 20
-321.8054821666293
 30
0.0
 11
1482.785303337893
 21
-323.4034480445992
 31
0.0
  0
LINE
  5
28B
330
1BF
100
AcDbEntity
  8
Fills_ Pattern_Pen_No__153
  6
Continuous
100
AcDbLine
 10
1476.91269681449
 20
-315.276421334402
 30
0.0
 11
1476.319518930723
 21
-316.9376636374293
 31
0.0
  0
LINE
  5
28C
330
1BF
100
AcDbEntity
  8
Fills_ Pattern_Pen_No__153
  6
Continuous
100
AcDbLine
 10
1482.785303337893
 20
-323.4034480445992
 30
0.0
 11
1482.119151296174
 21
-325.0367965831761
 31
0.0
  0
LINE
  5
28D
330
1BF
100
AcDbEntity
  8
Fills_ Pattern_Pen_No__153
  6
Continuous
100
AcDbLine
 10
1476.319518930723
 20
-316.9376636374293
 30
0.0
 11
1475.653366889005
 21
-318.5710121760063
 31
0.0
  0
LINE
  5
28E
330
1BF
100
AcDbEntity
  8
Fills_ Pattern_Pen_No__153
  6
Continuous
100
AcDbLine
 10
1482.119151296174
 20
-325.0367965831761
 30
0.0
 11
1481.381331735301
 21
-326.6390475893389
 31
0.0
  0
LINE
  5
28F
330
1BF
100
AcDbEntity
  8
Fills_ Pattern_Pen_No__153
  6
Continuous
100
AcDbLine
 10
1475.653366889005
 20
-318.5710121760063
 30
0.0
 11
1474.915547328131
 21
-320.173263182169
 31
0.0
  0
LINE
  5
290
330
1BF
100
AcDbEntity
  8
Fills_ Pattern_Pen_No__153
  6
Continuous
100
AcDbLine
 10
1481.381331735301
 20
-326.6390475893389
 30
0.0
 11
1480.573291867926
 21
-328.2070582920733
 31
0.0
  0
LINE
  5
291
330
1BF
100
AcDbEntity
  8
Fills_ Pattern_Pen_No__153
  6
Continuous
100
AcDbLine
 10
1474.915547328131
 20
-320.173263182169
 30
0.0
 11
1474.355887181149
 21
-321.2592901664727
 31
0.0
  0
LINE
  5
292
330
1BF
100
AcDbEntity
  8
Fills_ Pattern_Pen_No__153
  6
Continuous
100
AcDbLine
 10
1480.573291867926
 20
-328.2070582920733
 30
0.0
 11
1479.696616641891
 21
-329.7377530817727
 31
0.0
  0
LINE
  5
293
330
1BF
100
AcDbEntity
  8
Fills_ Pattern_Pen_No__153
  6
Continuous
100
AcDbLine
 10
1479.696616641891
 20
-329.7377530817727
 30
0.0
 11
1478.753025631394
 21
-331.2281295429614
 31
0.0
  0
LINE
  5
294
330
1BF
100
AcDbEntity
  8
Fills_ Pattern_Pen_No__153
  6
Continuous
100
AcDbLine
 10
1478.753025631394
 20
-331.2281295429614
 30
0.0
 11
1477.744369664092
 21
-332.6752643434497
 31
0.0
  0
LINE
  5
295
330
1BF
100
AcDbEntity
  8
Fills_ Pattern_Pen_No__153
  6
Continuous
100
AcDbLine
 10
1478.928991435532
 20
-315.087798144969
 30
0.0
 11
1478.580737317298
 21
-315.9396185193971
 31
0.0
  0
LINE
  5
296
330
1BF
100
AcDbEntity
  8
Fills_ Pattern_Pen_No__153
  6
Continuous
100
AcDbLine
 10
1478.580737317298
 20
-315.9396185193971
 30
0.0
 11
1478.218624375553
 21
-316.7856404449868
 31
0.0
  0
LINE
  5
297
330
1BF
100
AcDbEntity
  8
Fills_ Pattern_Pen_No__153
  6
Continuous
100
AcDbLine
 10
1478.218624375553
 20
-316.7856404449868
 30
0.0
 11
1477.842749111589
 21
-317.6256384611146
 31
0.0
  0
LINE
  5
298
330
1BF
100
AcDbEntity
  8
Fills_ Pattern_Pen_No__153
  6
Continuous
100
AcDbLine
 10
1477.842749111589
 20
-317.6256384611146
 30
0.0
 11
1477.453211694292
 21
-318.4593887124985
 31
0.0
  0
LINE
  5
299
330
1BF
100
AcDbEntity
  8
Fills_ Pattern_Pen_No__153
  6
Continuous
100
AcDbLine
 10
1477.453211694292
 20
-318.4593887124985
 30
0.0
 11
1477.050115933438
 21
-319.286669008855
 31
0.0
  0
LINE
  5
29A
330
1BF
100
AcDbEntity
  8
Fills_ Pattern_Pen_No__153
  6
Continuous
100
AcDbLine
 10
1483.355887181139
 20
-326.0676766177234
 30
0.0
 11
1483.099353659208
 21
-326.573043291281
 31
0.0
  0
LINE
  5
29B
330
1BF
100
AcDbEntity
  8
Fills_ Pattern_Pen_No__153
  6
Continuous
100
AcDbLine
 10
1477.050115933438
 20
-319.286669008855
 30
0.0
 11
1476.633569252039
 21
-320.1072588841111
 31
0.0
  0
LINE
  5
29C
330
1BF
100
AcDbEntity
  8
Fills_ Pattern_Pen_No__153
  6
Continuous
100
AcDbLine
 10
1483.099353659208
 20
-326.573043291281
 30
0.0
 11
1482.669467064876
 21
-327.3867240623276
 31
0.0
  0
LINE
  5
29D
330
1BF
100
AcDbEntity
  8
Fills_ Pattern_Pen_No__153
  6
Continuous
100
AcDbLine
 10
1476.633569252039
 20
-320.1072588841111
 30
0.0
 11
1476.203682657707
 21
-320.9209396551578
 31
0.0
  0
LINE
  5
29E
330
1BF
100
AcDbEntity
  8
Fills_ Pattern_Pen_No__153
  6
Continuous
100
AcDbLine
 10
1482.669467064876
 20
-327.3867240623276
 30
0.0
 11
1482.226355120244
 21
-328.1932788872975
 31
0.0
  0
LINE
  5
29F
330
1BF
100
AcDbEntity
  8
Fills_ Pattern_Pen_No__153
  6
Continuous
100
AcDbLine
 10
1476.203682657707
 20
-320.9209396551578
 30
0.0
 11
1475.760570713075
 21
-321.7274944801277
 31
0.0
  0
LINE
  5
2A0
330
1BF
100
AcDbEntity
  8
Fills_ Pattern_Pen_No__153
  6
Continuous
100
AcDbLine
 10
1478.72799865278
 20
-318.760066540422
 30
0.0
 11
1478.91429595115
 21
-318.4627028874546
 31
0.0
  0
LINE
  5
2A1
330
1BF
100
AcDbEntity
  8
Fills_ Pattern_Pen_No__153
  6
Continuous
100
AcDbLine
 10
1478.91429595115
 20
-318.4627028874546
 30
0.0
 11
1479.100978484952
 21
-318.1655809309126
 31
0.0
  0
LINE
  5
2A2
330
1BF
100
AcDbEntity
  8
Fills_ Pattern_Pen_No__153
  6
Continuous
100
AcDbLine
 10
1479.100978484952
 20
-318.1655809309126
 30
0.0
 11
1479.288045940617
 21
-317.8687011698693
 31
0.0
  0
LINE
  5
2A3
330
1BF
100
AcDbEntity
  8
Fills_ Pattern_Pen_No__153
  6
Continuous
100
AcDbLine
 10
1479.288045940617
 20
-317.8687011698693
 30
0.0
 11
1479.475498003928
 21
-317.572064102991
 31
0.0
  0
LINE
  5
2A4
330
1BF
100
AcDbEntity
  8
Fills_ Pattern_Pen_No__153
  6
Continuous
100
AcDbLine
 10
1479.475498003928
 20
-317.572064102991
 30
0.0
 11
1479.663334360026
 21
-317.2756702285366
 31
0.0
  0
LINE
  5
2A5
330
1BF
100
AcDbEntity
  8
Fills_ Pattern_Pen_No__153
  6
Continuous
100
AcDbLine
 10
1479.663334360026
 20
-317.2756702285366
 30
0.0
 11
1479.851554693402
 21
-316.9795200443565
 31
0.0
  0
LINE
  5
2A6
330
1BF
100
AcDbEntity
  8
Fills_ Pattern_Pen_No__153
  6
Continuous
100
AcDbLine
 10
1479.851554693402
 20
-316.9795200443565
 30
0.0
 11
1480.040158687904
 21
-316.6836140478916
 31
0.0
  0
LINE
  5
2A7
330
1BF
100
AcDbEntity
  8
Fills_ Pattern_Pen_No__153
  6
Continuous
100
AcDbLine
 10
1480.040158687904
 20
-316.6836140478916
 30
0.0
 11
1480.229146026736
 21
-316.387952736173
 31
0.0
  0
ENDBLK
  5
2A8
330
1BF
100
AcDbEntity
  8
0
100
AcDbBlockEnd
  0
BLOCK
  5
2AA
330
2A9
100
AcDbEntity
  8
0
100
AcDbBlockBegin
  2
Fill_2
 70
     0
 10
0.0
 20
0.0
 30
0.0
  3
Fill_2
  1

  0
INSERT
  5
2AB
330
2A9
100
AcDbEntity
  8
Fills_ Pattern_Pen_No__153
  6
Continuous
100
AcDbBlockReference
  2
*X16
 10
0.0
 20
0.0
 30
0.0
  0
ENDBLK
  5
2AC
330
2A9
100
AcDbEntity
  8
0
100
AcDbBlockEnd
  0
BLOCK
  5
2AE
330
2AD
100
AcDbEntity
  8
0
100
AcDbBlockBegin
  2
*X16
 70
     1
 10
0.0
 20
0.0
 30
0.0
  3
*X16
  1

  0
LINE
  5
2AF
330
2AD
100
AcDbEntity
  8
Fills_ Pattern_Pen_No__153
  6
Continuous
100
AcDbLine
 10
1574.764298484571
 20
-514.2257696462537
 30
0.0
 11
1574.506712599981
 21
-516.2864567229791
 31
0.0
  0
LINE
  5
2B0
330
2AD
100
AcDbEntity
  8
Fills_ Pattern_Pen_No__153
  6
Continuous
100
AcDbLine
 10
1524.764298484571
 20
-464.2257696462537
 30
0.0
 11
1524.506712599981
 21
-466.2864567229791
 31
0.0
  0
LINE
  5
2B1
330
2AD
100
AcDbEntity
  8
Fills_ Pattern_Pen_No__153
  6
Continuous
100
AcDbLine
 10
1574.764298484571
 20
-464.2257696462537
 30
0.0
 11
1574.506712599981
 21
-466.2864567229791
 31
0.0
  0
LINE
  5
2B2
330
2AD
100
AcDbEntity
  8
Fills_ Pattern_Pen_No__153
  6
Continuous
100
AcDbLine
 10
1474.764298484571
 20
-414.2257696462537
 30
0.0
 11
1474.50671259998
 21
-416.2864567229791
 31
0.0
  0
LINE
  5
2B3
330
2AD
100
AcDbEntity
  8
Fills_ Pattern_Pen_No__153
  6
Continuous
100
AcDbLine
 10
1524.764298484571
 20
-414.2257696462537
 30
0.0
 11
1524.506712599981
 21
-416.2864567229791
 31
0.0
  0
LINE
  5
2B4
330
2AD
100
AcDbEntity
  8
Fills_ Pattern_Pen_No__153
  6
Continuous
100
AcDbLine
 10
1574.764298484571
 20
-414.2257696462537
 30
0.0
 11
1574.506712599981
 21
-416.2864567229791
 31
0.0
  0
LINE
  5
2B5
330
2AD
100
AcDbEntity
  8
Fills_ Pattern_Pen_No__153
  6
Continuous
100
AcDbLine
 10
1474.764298484571
 20
-364.2257696462538
 30
0.0
 11
1474.50671259998
 21
-366.2864567229792
 31
0.0
  0
LINE
  5
2B6
330
2AD
100
AcDbEntity
  8
Fills_ Pattern_Pen_No__153
  6
Continuous
100
AcDbLine
 10
1524.764298484571
 20
-364.2257696462538
 30
0.0
 11
1524.506712599981
 21
-366.2864567229792
 31
0.0
  0
LINE
  5
2B7
330
2AD
100
AcDbEntity
  8
Fills_ Pattern_Pen_No__153
  6
Continuous
100
AcDbLine
 10
1574.764298484571
 20
-364.2257696462538
 30
0.0
 11
1574.506712599981
 21
-366.2864567229792
 31
0.0
  0
LINE
  5
2B8
330
2AD
100
AcDbEntity
  8
Fills_ Pattern_Pen_No__153
  6
Continuous
100
AcDbLine
 10
1574.506712599981
 20
-516.2864567229791
 30
0.0
 11
1577.468950272774
 21
-515.8356814249454
 31
0.0
  0
LINE
  5
2B9
330
2AD
100
AcDbEntity
  8
Fills_ Pattern_Pen_No__153
  6
Continuous
100
AcDbLine
 10
1524.506712599981
 20
-466.2864567229791
 30
0.0
 11
1527.468950272773
 21
-465.8356814249454
 31
0.0
  0
LINE
  5
2BA
330
2AD
100
AcDbEntity
  8
Fills_ Pattern_Pen_No__153
  6
Continuous
100
AcDbLine
 10
1574.506712599981
 20
-466.2864567229791
 30
0.0
 11
1577.468950272774
 21
-465.8356814249454
 31
0.0
  0
LINE
  5
2BB
330
2AD
100
AcDbEntity
  8
Fills_ Pattern_Pen_No__153
  6
Continuous
100
AcDbLine
 10
1474.50671259998
 20
-416.2864567229791
 30
0.0
 11
1477.468950272773
 21
-415.8356814249455
 31
0.0
  0
LINE
  5
2BC
330
2AD
100
AcDbEntity
  8
Fills_ Pattern_Pen_No__153
  6
Continuous
100
AcDbLine
 10
1524.506712599981
 20
-416.2864567229791
 30
0.0
 11
1527.468950272773
 21
-415.8356814249455
 31
0.0
  0
LINE
  5
2BD
330
2AD
100
AcDbEntity
  8
Fills_ Pattern_Pen_No__153
  6
Continuous
100
AcDbLine
 10
1574.506712599981
 20
-416.2864567229791
 30
0.0
 11
1577.468950272774
 21
-415.8356814249455
 31
0.0
  0
LINE
  5
2BE
330
2AD
100
AcDbEntity
  8
Fills_ Pattern_Pen_No__153
  6
Continuous
100
AcDbLine
 10
1474.50671259998
 20
-366.2864567229792
 30
0.0
 11
1477.468950272773
 21
-365.8356814249456
 31
0.0
  0
LINE
  5
2BF
330
2AD
100
AcDbEntity
  8
Fills_ Pattern_Pen_No__153
  6
Continuous
100
AcDbLine
 10
1524.506712599981
 20
-366.2864567229792
 30
0.0
 11
1527.468950272773
 21
-365.8356814249456
 31
0.0
  0
LINE
  5
2C0
330
2AD
100
AcDbEntity
  8
Fills_ Pattern_Pen_No__153
  6
Continuous
100
AcDbLine
 10
1574.506712599981
 20
-366.2864567229792
 30
0.0
 11
1577.468950272774
 21
-365.8356814249456
 31
0.0
  0
LINE
  5
2C1
330
2AD
100
AcDbEntity
  8
Fills_ Pattern_Pen_No__153
  6
Continuous
100
AcDbLine
 10
1577.468950272774
 20
-515.8356814249454
 30
0.0
 11
1574.764298484571
 21
-514.2257696462537
 31
0.0
  0
LINE
  5
2C2
330
2AD
100
AcDbEntity
  8
Fills_ Pattern_Pen_No__153
  6
Continuous
100
AcDbLine
 10
1527.468950272773
 20
-465.8356814249454
 30
0.0
 11
1524.764298484571
 21
-464.2257696462537
 31
0.0
  0
LINE
  5
2C3
330
2AD
100
AcDbEntity
  8
Fills_ Pattern_Pen_No__153
  6
Continuous
100
AcDbLine
 10
1577.468950272774
 20
-465.8356814249454
 30
0.0
 11
1574.764298484571
 21
-464.2257696462537
 31
0.0
  0
LINE
  5
2C4
330
2AD
100
AcDbEntity
  8
Fills_ Pattern_Pen_No__153
  6
Continuous
100
AcDbLine
 10
1477.468950272773
 20
-415.8356814249455
 30
0.0
 11
1474.764298484571
 21
-414.2257696462537
 31
0.0
  0
LINE
  5
2C5
330
2AD
100
AcDbEntity
  8
Fills_ Pattern_Pen_No__153
  6
Continuous
100
AcDbLine
 10
1527.468950272773
 20
-415.8356814249455
 30
0.0
 11
1524.764298484571
 21
-414.2257696462537
 31
0.0
  0
LINE
  5
2C6
330
2AD
100
AcDbEntity
  8
Fills_ Pattern_Pen_No__153
  6
Continuous
100
AcDbLine
 10
1577.468950272774
 20
-415.8356814249455
 30
0.0
 11
1574.764298484571
 21
-414.2257696462537
 31
0.0
  0
LINE
  5
2C7
330
2AD
100
AcDbEntity
  8
Fills_ Pattern_Pen_No__153
  6
Continuous
100
AcDbLine
 10
1477.468950272773
 20
-365.8356814249456
 30
0.0
 11
1474.764298484571
 21
-364.2257696462538
 31
0.0
  0
LINE
  5
2C8
330
2AD
100
AcDbEntity
  8
Fills_ Pattern_Pen_No__153
  6
Continuous
100
AcDbLine
 10
1527.468950272773
 20
-365.8356814249456
 30
0.0
 11
1524.764298484571
 21
-364.2257696462538
 31
0.0
  0
LINE
  5
2C9
330
2AD
100
AcDbEntity
  8
Fills_ Pattern_Pen_No__153
  6
Continuous
100
AcDbLine
 10
1577.468950272774
 20
-365.8356814249456
 30
0.0
 11
1574.764298484571
 21
-364.2257696462538
 31
0.0
  0
LINE
  5
2CA
330
2AD
100
AcDbEntity
  8
Fills_ Pattern_Pen_No__153
  6
Continuous
100
AcDbLine
 10
1506.739948267136
 20
-471.3071946819566
 30
0.0
 11
1506.303909465634
 21
-472.5668623307385
 31
0.0
  0
LINE
  5
2CB
330
2AD
100
AcDbEntity
  8
Fills_ Pattern_Pen_No__153
  6
Continuous
100
AcDbLine
 10
1556.739948267136
 20
-471.3071946819566
 30
0.0
 11
1556.303909465634
 21
-472.5668623307385
 31
0.0
  0
LINE
  5
2CC
330
2AD
100
AcDbEntity
  8
Fills_ Pattern_Pen_No__153
  6
Continuous
100
AcDbLine
 10
1506.739948267136
 20
-421.3071946819566
 30
0.0
 11
1506.303909465634
 21
-422.5668623307385
 31
0.0
  0
LINE
  5
2CD
330
2AD
100
AcDbEntity
  8
Fills_ Pattern_Pen_No__153
  6
Continuous
100
AcDbLine
 10
1556.739948267136
 20
-421.3071946819566
 30
0.0
 11
1556.303909465634
 21
-422.5668623307385
 31
0.0
  0
LINE
  5
2CE
330
2AD
100
AcDbEntity
  8
Fills_ Pattern_Pen_No__153
  6
Continuous
100
AcDbLine
 10
1456.739948267136
 20
-371.3071946819566
 30
0.0
 11
1456.303909465634
 21
-372.5668623307387
 31
0.0
  0
LINE
  5
2CF
330
2AD
100
AcDbEntity
  8
Fills_ Pattern_Pen_No__153
  6
Continuous
100
AcDbLine
 10
1506.739948267136
 20
-371.3071946819566
 30
0.0
 11
1506.303909465634
 21
-372.5668623307387
 31
0.0
  0
LINE
  5
2D0
330
2AD
100
AcDbEntity
  8
Fills_ Pattern_Pen_No__153
  6
Continuous
100
AcDbLine
 10
1556.739948267136
 20
-371.3071946819566
 30
0.0
 11
1556.303909465634
 21
-372.5668623307387
 31
0.0
  0
LINE
  5
2D1
330
2AD
100
AcDbEntity
  8
Fills_ Pattern_Pen_No__153
  6
Continuous
100
AcDbLine
 10
1506.303909465634
 20
-472.5668623307385
 30
0.0
 11
1506.643050755691
 21
-472.4699648192937
 31
0.0
  0
LINE
  5
2D2
330
2AD
100
AcDbEntity
  8
Fills_ Pattern_Pen_No__153
  6
Continuous
100
AcDbLine
 10
1556.303909465634
 20
-472.5668623307385
 30
0.0
 11
1556.643050755691
 21
-472.4699648192937
 31
0.0
  0
LINE
  5
2D3
330
2AD
100
AcDbEntity
  8
Fills_ Pattern_Pen_No__153
  6
Continuous
100
AcDbLine
 10
1506.303909465634
 20
-422.5668623307385
 30
0.0
 11
1506.643050755691
 21
-422.4699648192937
 31
0.0
  0
LINE
  5
2D4
330
2AD
100
AcDbEntity
  8
Fills_ Pattern_Pen_No__153
  6
Continuous
100
AcDbLine
 10
1556.303909465634
 20
-422.5668623307385
 30
0.0
 11
1556.643050755691
 21
-422.4699648192937
 31
0.0
  0
LINE
  5
2D5
330
2AD
100
AcDbEntity
  8
Fills_ Pattern_Pen_No__153
  6
Continuous
100
AcDbLine
 10
1456.303909465634
 20
-372.5668623307387
 30
0.0
 11
1456.643050755691
 21
-372.4699648192939
 31
0.0
  0
LINE
  5
2D6
330
2AD
100
AcDbEntity
  8
Fills_ Pattern_Pen_No__153
  6
Continuous
100
AcDbLine
 10
1506.303909465634
 20
-372.5668623307387
 30
0.0
 11
1506.643050755691
 21
-372.4699648192939
 31
0.0
  0
LINE
  5
2D7
330
2AD
100
AcDbEntity
  8
Fills_ Pattern_Pen_No__153
  6
Continuous
100
AcDbLine
 10
1556.303909465634
 20
-372.5668623307387
 30
0.0
 11
1556.643050755691
 21
-372.4699648192939
 31
0.0
  0
LINE
  5
2D8
330
2AD
100
AcDbEntity
  8
Fills_ Pattern_Pen_No__153
  6
Continuous
100
AcDbLine
 10
1506.643050755691
 20
-472.4699648192937
 30
0.0
 11
1506.739948267136
 21
-471.3071946819566
 31
0.0
  0
LINE
  5
2D9
330
2AD
100
AcDbEntity
  8
Fills_ Pattern_Pen_No__153
  6
Continuous
100
AcDbLine
 10
1556.643050755691
 20
-472.4699648192937
 30
0.0
 11
1556.739948267136
 21
-471.3071946819566
 31
0.0
  0
LINE
  5
2DA
330
2AD
100
AcDbEntity
  8
Fills_ Pattern_Pen_No__153
  6
Continuous
100
AcDbLine
 10
1506.643050755691
 20
-422.4699648192937
 30
0.0
 11
1506.739948267136
 21
-421.3071946819566
 31
0.0
  0
LINE
  5
2DB
330
2AD
100
AcDbEntity
  8
Fills_ Pattern_Pen_No__153
  6
Continuous
100
AcDbLine
 10
1556.643050755691
 20
-422.4699648192937
 30
0.0
 11
1556.739948267136
 21
-421.3071946819566
 31
0.0
  0
LINE
  5
2DC
330
2AD
100
AcDbEntity
  8
Fills_ Pattern_Pen_No__153
  6
Continuous
100
AcDbLine
 10
1456.643050755691
 20
-372.4699648192939
 30
0.0
 11
1456.739948267136
 21
-371.3071946819566
 31
0.0
  0
LINE
  5
2DD
330
2AD
100
AcDbEntity
  8
Fills_ Pattern_Pen_No__153
  6
Continuous
100
AcDbLine
 10
1506.643050755691
 20
-372.4699648192939
 30
0.0
 11
1506.739948267136
 21
-371.3071946819566
 31
0.0
  0
LINE
  5
2DE
330
2AD
100
AcDbEntity
  8
Fills_ Pattern_Pen_No__153
  6
Continuous
100
AcDbLine
 10
1556.643050755691
 20
-372.4699648192939
 30
0.0
 11
1556.739948267136
 21
-371.3071946819566
 31
0.0
  0
LINE
  5
2DF
330
2AD
100
AcDbEntity
  8
Fills_ Pattern_Pen_No__153
  6
Continuous
100
AcDbLine
 10
1527.841087326337
 20
-489.8485586755836
 30
0.0
 11
1530.291502562944
 21
-491.4821688333214
 31
0.0
  0
LINE
  5
2E0
330
2AD
100
AcDbEntity
  8
Fills_ Pattern_Pen_No__153
  6
Continuous
100
AcDbLine
 10
1577.841087326337
 20
-489.8485586755836
 30
0.0
 11
1580.137033051608
 21
-491.3791891590975
 31
0.0
  0
LINE
  5
2E1
330
2AD
100
AcDbEntity
  8
Fills_ Pattern_Pen_No__153
  6
Continuous
100
AcDbLine
 10
1527.841087326337
 20
-439.8485586755836
 30
0.0
 11
1530.291502562944
 21
-441.4821688333214
 31
0.0
  0
LINE
  5
2E2
330
2AD
100
AcDbEntity
  8
Fills_ Pattern_Pen_No__153
  6
Continuous
100
AcDbLine
 10
1577.841087326337
 20
-439.8485586755836
 30
0.0
 11
1580.137033051608
 21
-441.3791891590975
 31
0.0
  0
LINE
  5
2E3
330
2AD
100
AcDbEntity
  8
Fills_ Pattern_Pen_No__153
  6
Continuous
100
AcDbLine
 10
1477.841087326337
 20
-389.8485586755837
 30
0.0
 11
1480.291502562944
 21
-391.4821688333215
 31
0.0
  0
LINE
  5
2E4
330
2AD
100
AcDbEntity
  8
Fills_ Pattern_Pen_No__153
  6
Continuous
100
AcDbLine
 10
1527.841087326337
 20
-389.8485586755837
 30
0.0
 11
1530.291502562944
 21
-391.4821688333215
 31
0.0
  0
LINE
  5
2E5
330
2AD
100
AcDbEntity
  8
Fills_ Pattern_Pen_No__153
  6
Continuous
100
AcDbLine
 10
1577.841087326337
 20
-389.8485586755837
 30
0.0
 11
1580.137033051608
 21
-391.3791891590976
 31
0.0
  0
LINE
  5
2E6
330
2AD
100
AcDbEntity
  8
Fills_ Pattern_Pen_No__153
  6
Continuous
100
AcDbLine
 10
1530.291502562944
 20
-491.4821688333214
 30
0.0
 11
1529.801419515623
 21
-490.3386417229049
 31
0.0
  0
LINE
  5
2E7
330
2AD
100
AcDbEntity
  8
Fills_ Pattern_Pen_No__153
  6
Continuous
100
AcDbLine
 10
1580.137033051608
 20
-491.1217399735378
 30
0.0
 11
1579.801419515623
 21
-490.3386417229049
 31
0.0
  0
LINE
  5
2E8
330
2AD
100
AcDbEntity
  8
Fills_ Pattern_Pen_No__153
  6
Continuous
100
AcDbLine
 10
1530.291502562944
 20
-441.4821688333214
 30
0.0
 11
1529.801419515623
 21
-440.3386417229049
 31
0.0
  0
LINE
  5
2E9
330
2AD
100
AcDbEntity
  8
Fills_ Pattern_Pen_No__153
  6
Continuous
100
AcDbLine
 10
1580.137033051608
 20
-441.1217399735379
 30
0.0
 11
1579.801419515623
 21
-440.3386417229049
 31
0.0
  0
LINE
  5
2EA
330
2AD
100
AcDbEntity
  8
Fills_ Pattern_Pen_No__153
  6
Continuous
100
AcDbLine
 10
1480.291502562944
 20
-391.4821688333215
 30
0.0
 11
1479.801419515623
 21
-390.3386417229049
 31
0.0
  0
LINE
  5
2EB
330
2AD
100
AcDbEntity
  8
Fills_ Pattern_Pen_No__153
  6
Continuous
100
AcDbLine
 10
1530.291502562944
 20
-391.4821688333215
 30
0.0
 11
1529.801419515623
 21
-390.3386417229049
 31
0.0
  0
LINE
  5
2EC
330
2AD
100
AcDbEntity
  8
Fills_ Pattern_Pen_No__153
  6
Continuous
100
AcDbLine
 10
1580.137033051608
 20
-391.1217399735379
 30
0.0
 11
1579.801419515623
 21
-390.3386417229049
 31
0.0
  0
LINE
  5
2ED
330
2AD
100
AcDbEntity
  8
Fills_ Pattern_Pen_No__153
  6
Continuous
100
AcDbLine
 10
1529.801419515623
 20
-490.3386417229049
 30
0.0
 11
1527.841087326337
 21
-489.8485586755836
 31
0.0
  0
LINE
  5
2EE
330
2AD
100
AcDbEntity
  8
Fills_ Pattern_Pen_No__153
  6
Continuous
100
AcDbLine
 10
1579.801419515623
 20
-490.3386417229049
 30
0.0
 11
1577.841087326337
 21
-489.8485586755836
 31
0.0
  0
LINE
  5
2EF
330
2AD
100
AcDbEntity
  8
Fills_ Pattern_Pen_No__153
  6
Continuous
100
AcDbLine
 10
1529.801419515623
 20
-440.3386417229049
 30
0.0
 11
1527.841087326337
 21
-439.8485586755836
 31
0.0
  0
LINE
  5
2F0
330
2AD
100
AcDbEntity
  8
Fills_ Pattern_Pen_No__153
  6
Continuous
100
AcDbLine
 10
1579.801419515623
 20
-440.3386417229049
 30
0.0
 11
1577.841087326337
 21
-439.8485586755836
 31
0.0
  0
LINE
  5
2F1
330
2AD
100
AcDbEntity
  8
Fills_ Pattern_Pen_No__153
  6
Continuous
100
AcDbLine
 10
1479.801419515623
 20
-390.3386417229049
 30
0.0
 11
1477.841087326337
 21
-389.8485586755837
 31
0.0
  0
LINE
  5
2F2
330
2AD
100
AcDbEntity
  8
Fills_ Pattern_Pen_No__153
  6
Continuous
100
AcDbLine
 10
1529.801419515623
 20
-390.3386417229049
 30
0.0
 11
1527.841087326337
 21
-389.8485586755837
 31
0.0
  0
LINE
  5
2F3
330
2AD
100
AcDbEntity
  8
Fills_ Pattern_Pen_No__153
  6
Continuous
100
AcDbLine
 10
1579.801419515623
 20
-390.3386417229049
 30
0.0
 11
1577.841087326337
 21
-389.8485586755837
 31
0.0
  0
LINE
  5
2F4
330
2AD
100
AcDbEntity
  8
Fills_ Pattern_Pen_No__153
  6
Continuous
100
AcDbLine
 10
1549.08954855015
 20
-501.9488030160647
 30
0.0
 11
1548.762826518603
 21
-503.9091352053501
 31
0.0
  0
LINE
  5
2F5
330
2AD
100
AcDbEntity
  8
Fills_ Pattern_Pen_No__153
  6
Continuous
100
AcDbLine
 10
1499.08954855015
 20
-451.9488030160647
 30
0.0
 11
1498.762826518603
 21
-453.9091352053501
 31
0.0
  0
LINE
  5
2F6
330
2AD
100
AcDbEntity
  8
Fills_ Pattern_Pen_No__153
  6
Continuous
100
AcDbLine
 10
1549.08954855015
 20
-451.9488030160647
 30
0.0
 11
1548.762826518603
 21
-453.9091352053501
 31
0.0
  0
LINE
  5
2F7
330
2AD
100
AcDbEntity
  8
Fills_ Pattern_Pen_No__153
  6
Continuous
100
AcDbLine
 10
1499.08954855015
 20
-401.9488030160647
 30
0.0
 11
1498.762826518603
 21
-403.9091352053501
 31
0.0
  0
LINE
  5
2F8
330
2AD
100
AcDbEntity
  8
Fills_ Pattern_Pen_No__153
  6
Continuous
100
AcDbLine
 10
1549.08954855015
 20
-401.9488030160647
 30
0.0
 11
1548.762826518603
 21
-403.9091352053501
 31
0.0
  0
LINE
  5
2F9
330
2AD
100
AcDbEntity
  8
Fills_ Pattern_Pen_No__153
  6
Continuous
100
AcDbLine
 10
1548.762826518603
 20
-503.9091352053501
 30
0.0
 11
1550.559797692115
 21
-502.7656080949335
 31
0.0
  0
LINE
  5
2FA
330
2AD
100
AcDbEntity
  8
Fills_ Pattern_Pen_No__153
  6
Continuous
100
AcDbLine
 10
1498.762826518603
 20
-453.9091352053501
 30
0.0
 11
1500.559797692115
 21
-452.7656080949336
 31
0.0
  0
LINE
  5
2FB
330
2AD
100
AcDbEntity
  8
Fills_ Pattern_Pen_No__153
  6
Continuous
100
AcDbLine
 10
1548.762826518603
 20
-453.9091352053501
 30
0.0
 11
1550.559797692115
 21
-452.7656080949336
 31
0.0
  0
LINE
  5
2FC
330
2AD
100
AcDbEntity
  8
Fills_ Pattern_Pen_No__153
  6
Continuous
100
AcDbLine
 10
1498.762826518603
 20
-403.9091352053501
 30
0.0
 11
1500.559797692115
 21
-402.7656080949336
 31
0.0
  0
LINE
  5
2FD
330
2AD
100
AcDbEntity
  8
Fills_ Pattern_Pen_No__153
  6
Continuous
100
AcDbLine
 10
1548.762826518603
 20
-403.9091352053501
 30
0.0
 11
1550.559797692115
 21
-402.7656080949336
 31
0.0
  0
LINE
  5
2FE
330
2AD
100
AcDbEntity
  8
Fills_ Pattern_Pen_No__153
  6
Continuous
100
AcDbLine
 10
1550.559797692115
 20
-502.7656080949335
 30
0.0
 11
1549.08954855015
 21
-501.9488030160647
 31
0.0
  0
LINE
  5
2FF
330
2AD
100
AcDbEntity
  8
Fills_ Pattern_Pen_No__153
  6
Continuous
100
AcDbLine
 10
1500.559797692115
 20
-452.7656080949336
 30
0.0
 11
1499.08954855015
 21
-451.9488030160647
 31
0.0
  0
LINE
  5
300
330
2AD
100
AcDbEntity
  8
Fills_ Pattern_Pen_No__153
  6
Continuous
100
AcDbLine
 10
1550.559797692115
 20
-452.7656080949336
 30
0.0
 11
1549.08954855015
 21
-451.9488030160647
 31
0.0
  0
LINE
  5
301
330
2AD
100
AcDbEntity
  8
Fills_ Pattern_Pen_No__153
  6
Continuous
100
AcDbLine
 10
1500.559797692115
 20
-402.7656080949336
 30
0.0
 11
1499.08954855015
 21
-401.9488030160647
 31
0.0
  0
LINE
  5
302
330
2AD
100
AcDbEntity
  8
Fills_ Pattern_Pen_No__153
  6
Continuous
100
AcDbLine
 10
1550.559797692115
 20
-402.7656080949336
 30
0.0
 11
1549.08954855015
 21
-401.9488030160647
 31
0.0
  0
LINE
  5
303
330
2AD
100
AcDbEntity
  8
Fills_ Pattern_Pen_No__153
  6
Continuous
100
AcDbLine
 10
1563.313486095691
 20
-516.4994625931526
 30
0.0
 11
1563.531267959052
 21
-517.1255854503158
 31
0.0
  0
LINE
  5
304
330
2AD
100
AcDbEntity
  8
Fills_ Pattern_Pen_No__153
  6
Continuous
100
AcDbLine
 10
1513.313486095691
 20
-466.4994625931525
 30
0.0
 11
1514.620374221881
 21
-470.2567659559497
 31
0.0
  0
LINE
  5
305
330
2AD
100
AcDbEntity
  8
Fills_ Pattern_Pen_No__153
  6
Continuous
100
AcDbLine
 10
1563.313486095691
 20
-466.4994625931525
 30
0.0
 11
1564.620374221881
 21
-470.2567659559497
 31
0.0
  0
LINE
  5
306
330
2AD
100
AcDbEntity
  8
Fills_ Pattern_Pen_No__153
  6
Continuous
100
AcDbLine
 10
1513.313486095691
 20
-416.4994625931525
 30
0.0
 11
1514.620374221881
 21
-420.2567659559496
 31
0.0
  0
LINE
  5
307
330
2AD
100
AcDbEntity
  8
Fills_ Pattern_Pen_No__153
  6
Continuous
100
AcDbLine
 10
1563.313486095691
 20
-416.4994625931525
 30
0.0
 11
1564.620374221881
 21
-420.2567659559496
 31
0.0
  0
LINE
  5
308
330
2AD
100
AcDbEntity
  8
Fills_ Pattern_Pen_No__153
  6
Continuous
100
AcDbLine
 10
1463.313486095691
 20
-366.4994625931526
 30
0.0
 11
1464.620374221881
 21
-370.2567659559497
 31
0.0
  0
LINE
  5
309
330
2AD
100
AcDbEntity
  8
Fills_ Pattern_Pen_No__153
  6
Continuous
100
AcDbLine
 10
1513.313486095691
 20
-366.4994625931526
 30
0.0
 11
1514.620374221881
 21
-370.2567659559497
 31
0.0
  0
LINE
  5
30A
330
2AD
100
AcDbEntity
  8
Fills_ Pattern_Pen_No__153
  6
Continuous
100
AcDbLine
 10
1563.313486095691
 20
-366.4994625931526
 30
0.0
 11
1564.620374221881
 21
-370.2567659559497
 31
0.0
  0
LINE
  5
30B
330
2AD
100
AcDbEntity
  8
Fills_ Pattern_Pen_No__153
  6
Continuous
100
AcDbLine
 10
1564.620374221881
 20
-517.1255854503158
 30
0.0
 11
1564.620374221881
 21
-516.9895456404739
 31
0.0
  0
LINE
  5
30C
330
2AD
100
AcDbEntity
  8
Fills_ Pattern_Pen_No__153
  6
Continuous
100
AcDbLine
 10
1514.620374221881
 20
-470.2567659559497
 30
0.0
 11
1514.620374221881
 21
-466.989545640474
 31
0.0
  0
LINE
  5
30D
330
2AD
100
AcDbEntity
  8
Fills_ Pattern_Pen_No__153
  6
Continuous
100
AcDbLine
 10
1564.620374221881
 20
-470.2567659559497
 30
0.0
 11
1564.620374221881
 21
-466.989545640474
 31
0.0
  0
LINE
  5
30E
330
2AD
100
AcDbEntity
  8
Fills_ Pattern_Pen_No__153
  6
Continuous
100
AcDbLine
 10
1514.620374221881
 20
-420.2567659559496
 30
0.0
 11
1514.620374221881
 21
-416.989545640474
 31
0.0
  0
LINE
  5
30F
330
2AD
100
AcDbEntity
  8
Fills_ Pattern_Pen_No__153
  6
Continuous
100
AcDbLine
 10
1564.620374221881
 20
-420.2567659559496
 30
0.0
 11
1564.620374221881
 21
-416.989545640474
 31
0.0
  0
LINE
  5
310
330
2AD
100
AcDbEntity
  8
Fills_ Pattern_Pen_No__153
  6
Continuous
100
AcDbLine
 10
1464.620374221881
 20
-370.2567659559497
 30
0.0
 11
1464.620374221881
 21
-366.989545640474
 31
0.0
  0
LINE
  5
311
330
2AD
100
AcDbEntity
  8
Fills_ Pattern_Pen_No__153
  6
Continuous
100
AcDbLine
 10
1514.620374221881
 20
-370.2567659559497
 30
0.0
 11
1514.620374221881
 21
-366.989545640474
 31
0.0
  0
LINE
  5
312
330
2AD
100
AcDbEntity
  8
Fills_ Pattern_Pen_No__153
  6
Continuous
100
AcDbLine
 10
1564.620374221881
 20
-370.2567659559497
 30
0.0
 11
1564.620374221881
 21
-366.989545640474
 31
0.0
  0
LINE
  5
313
330
2AD
100
AcDbEntity
  8
Fills_ Pattern_Pen_No__153
  6
Continuous
100
AcDbLine
 10
1564.620374221881
 20
-516.9895456404739
 30
0.0
 11
1563.313486095691
 21
-516.4994625931526
 31
0.0
  0
LINE
  5
314
330
2AD
100
AcDbEntity
  8
Fills_ Pattern_Pen_No__153
  6
Continuous
100
AcDbLine
 10
1514.620374221881
 20
-466.989545640474
 30
0.0
 11
1513.313486095691
 21
-466.4994625931525
 31
0.0
  0
LINE
  5
315
330
2AD
100
AcDbEntity
  8
Fills_ Pattern_Pen_No__153
  6
Continuous
100
AcDbLine
 10
1564.620374221881
 20
-466.989545640474
 30
0.0
 11
1563.313486095691
 21
-466.4994625931525
 31
0.0
  0
LINE
  5
316
330
2AD
100
AcDbEntity
  8
Fills_ Pattern_Pen_No__153
  6
Continuous
100
AcDbLine
 10
1514.620374221881
 20
-416.989545640474
 30
0.0
 11
1513.313486095691
 21
-416.4994625931525
 31
0.0
  0
LINE
  5
317
330
2AD
100
AcDbEntity
  8
Fills_ Pattern_Pen_No__153
  6
Continuous
100
AcDbLine
 10
1564.620374221881
 20
-416.989545640474
 30
0.0
 11
1563.313486095691
 21
-416.4994625931525
 31
0.0
  0
LINE
  5
318
330
2AD
100
AcDbEntity
  8
Fills_ Pattern_Pen_No__153
  6
Continuous
100
AcDbLine
 10
1464.620374221881
 20
-366.989545640474
 30
0.0
 11
1463.313486095691
 21
-366.4994625931526
 31
0.0
  0
LINE
  5
319
330
2AD
100
AcDbEntity
  8
Fills_ Pattern_Pen_No__153
  6
Continuous
100
AcDbLine
 10
1514.620374221881
 20
-366.989545640474
 30
0.0
 11
1513.313486095691
 21
-366.4994625931526
 31
0.0
  0
LINE
  5
31A
330
2AD
100
AcDbEntity
  8
Fills_ Pattern_Pen_No__153
  6
Continuous
100
AcDbLine
 10
1564.620374221881
 20
-366.989545640474
 30
0.0
 11
1563.313486095691
 21
-366.4994625931526
 31
0.0
  0
LINE
  5
31B
330
2AD
100
AcDbEntity
  8
Fills_ Pattern_Pen_No__153
  6
Continuous
100
AcDbLine
 10
1566.907428442714
 20
-499.9999999999999
 30
0.0
 11
1567.560872505809
 21
-498.8334145431419
 31
0.0
  0
LINE
  5
31C
330
2AD
100
AcDbEntity
  8
Fills_ Pattern_Pen_No__153
  6
Continuous
100
AcDbLine
 10
1516.907428442714
 20
-449.9999999999999
 30
0.0
 11
1517.560872505809
 21
-448.8334145431419
 31
0.0
  0
LINE
  5
31D
330
2AD
100
AcDbEntity
  8
Fills_ Pattern_Pen_No__153
  6
Continuous
100
AcDbLine
 10
1566.907428442714
 20
-449.9999999999999
 30
0.0
 11
1567.560872505809
 21
-448.8334145431419
 31
0.0
  0
LINE
  5
31E
330
2AD
100
AcDbEntity
  8
Fills_ Pattern_Pen_No__153
  6
Continuous
100
AcDbLine
 10
1466.907428442714
 20
-400.0
 30
0.0
 11
1467.560872505809
 21
-398.833414543142
 31
0.0
  0
LINE
  5
31F
330
2AD
100
AcDbEntity
  8
Fills_ Pattern_Pen_No__153
  6
Continuous
100
AcDbLine
 10
1516.907428442714
 20
-400.0
 30
0.0
 11
1517.560872505809
 21
-398.833414543142
 31
0.0
  0
LINE
  5
320
330
2AD
100
AcDbEntity
  8
Fills_ Pattern_Pen_No__153
  6
Continuous
100
AcDbLine
 10
1566.907428442714
 20
-400.0
 30
0.0
 11
1567.560872505809
 21
-398.833414543142
 31
0.0
  0
LINE
  5
321
330
2AD
100
AcDbEntity
  8
Fills_ Pattern_Pen_No__153
  6
Continuous
100
AcDbLine
 10
1567.560872505809
 20
-498.8334145431419
 30
0.0
 11
1568.867760631999
 21
-498.9967755589157
 31
0.0
  0
LINE
  5
322
330
2AD
100
AcDbEntity
  8
Fills_ Pattern_Pen_No__153
  6
Continuous
100
AcDbLine
 10
1517.560872505809
 20
-448.8334145431419
 30
0.0
 11
1518.867760631999
 21
-448.9967755589157
 31
0.0
  0
LINE
  5
323
330
2AD
100
AcDbEntity
  8
Fills_ Pattern_Pen_No__153
  6
Continuous
100
AcDbLine
 10
1567.560872505809
 20
-448.8334145431419
 30
0.0
 11
1568.867760631999
 21
-448.9967755589157
 31
0.0
  0
LINE
  5
324
330
2AD
100
AcDbEntity
  8
Fills_ Pattern_Pen_No__153
  6
Continuous
100
AcDbLine
 10
1467.560872505809
 20
-398.833414543142
 30
0.0
 11
1468.867760631999
 21
-398.9967755589157
 31
0.0
  0
LINE
  5
325
330
2AD
100
AcDbEntity
  8
Fills_ Pattern_Pen_No__153
  6
Continuous
100
AcDbLine
 10
1517.560872505809
 20
-398.833414543142
 30
0.0
 11
1518.867760631999
 21
-398.9967755589157
 31
0.0
  0
LINE
  5
326
330
2AD
100
AcDbEntity
  8
Fills_ Pattern_Pen_No__153
  6
Continuous
100
AcDbLine
 10
1567.560872505809
 20
-398.833414543142
 30
0.0
 11
1568.867760631999
 21
-398.9967755589157
 31
0.0
  0
LINE
  5
327
330
2AD
100
AcDbEntity
  8
Fills_ Pattern_Pen_No__153
  6
Continuous
100
AcDbLine
 10
1568.867760631999
 20
-498.9967755589157
 30
0.0
 11
1569.521204695095
 21
-499.9999999999999
 31
0.0
  0
LINE
  5
328
330
2AD
100
AcDbEntity
  8
Fills_ Pattern_Pen_No__153
  6
Continuous
100
AcDbLine
 10
1518.867760631999
 20
-448.9967755589157
 30
0.0
 11
1519.521204695095
 21
-449.9999999999999
 31
0.0
  0
LINE
  5
329
330
2AD
100
AcDbEntity
  8
Fills_ Pattern_Pen_No__153
  6
Continuous
100
AcDbLine
 10
1568.867760631999
 20
-448.9967755589157
 30
0.0
 11
1569.521204695095
 21
-449.9999999999999
 31
0.0
  0
LINE
  5
32A
330
2AD
100
AcDbEntity
  8
Fills_ Pattern_Pen_No__153
  6
Continuous
100
AcDbLine
 10
1468.867760631999
 20
-398.9967755589157
 30
0.0
 11
1469.521204695094
 21
-400.0
 31
0.0
  0
LINE
  5
32B
330
2AD
100
AcDbEntity
  8
Fills_ Pattern_Pen_No__153
  6
Continuous
100
AcDbLine
 10
1518.867760631999
 20
-398.9967755589157
 30
0.0
 11
1519.521204695095
 21
-400.0
 31
0.0
  0
LINE
  5
32C
330
2AD
100
AcDbEntity
  8
Fills_ Pattern_Pen_No__153
  6
Continuous
100
AcDbLine
 10
1568.867760631999
 20
-398.9967755589157
 30
0.0
 11
1569.521204695095
 21
-400.0
 31
0.0
  0
LINE
  5
32D
330
2AD
100
AcDbEntity
  8
Fills_ Pattern_Pen_No__153
  6
Continuous
100
AcDbLine
 10
1541.236690619788
 20
-500.805275905648
 30
0.0
 11
1539.766441477824
 21
-502.4388860633861
 31
0.0
  0
LINE
  5
32E
330
2AD
100
AcDbEntity
  8
Fills_ Pattern_Pen_No__153
  6
Continuous
100
AcDbLine
 10
1491.236690619787
 20
-450.805275905648
 30
0.0
 11
1489.766441477823
 21
-452.4388860633861
 31
0.0
  0
LINE
  5
32F
330
2AD
100
AcDbEntity
  8
Fills_ Pattern_Pen_No__153
  6
Continuous
100
AcDbLine
 10
1541.236690619788
 20
-450.805275905648
 30
0.0
 11
1539.766441477824
 21
-452.4388860633861
 31
0.0
  0
LINE
  5
330
330
2AD
100
AcDbEntity
  8
Fills_ Pattern_Pen_No__153
  6
Continuous
100
AcDbLine
 10
1491.236690619787
 20
-400.805275905648
 30
0.0
 11
1489.766441477823
 21
-402.4388860633861
 31
0.0
  0
LINE
  5
331
330
2AD
100
AcDbEntity
  8
Fills_ Pattern_Pen_No__153
  6
Continuous
100
AcDbLine
 10
1541.236690619788
 20
-400.805275905648
 30
0.0
 11
1539.766441477824
 21
-402.4388860633861
 31
0.0
  0
LINE
  5
332
330
2AD
100
AcDbEntity
  8
Fills_ Pattern_Pen_No__153
  6
Continuous
100
AcDbLine
 10
1539.766441477824
 20
-502.4388860633861
 30
0.0
 11
1541.236690619788
 21
-501.7854420002908
 31
0.0
  0
LINE
  5
333
330
2AD
100
AcDbEntity
  8
Fills_ Pattern_Pen_No__153
  6
Continuous
100
AcDbLine
 10
1489.766441477823
 20
-452.4388860633861
 30
0.0
 11
1491.236690619787
 21
-451.7854420002909
 31
0.0
  0
LINE
  5
334
330
2AD
100
AcDbEntity
  8
Fills_ Pattern_Pen_No__153
  6
Continuous
100
AcDbLine
 10
1539.766441477824
 20
-452.4388860633861
 30
0.0
 11
1541.236690619788
 21
-451.7854420002909
 31
0.0
  0
LINE
  5
335
330
2AD
100
AcDbEntity
  8
Fills_ Pattern_Pen_No__153
  6
Continuous
100
AcDbLine
 10
1489.766441477823
 20
-402.4388860633861
 30
0.0
 11
1491.236690619787
 21
-401.7854420002909
 31
0.0
  0
LINE
  5
336
330
2AD
100
AcDbEntity
  8
Fills_ Pattern_Pen_No__153
  6
Continuous
100
AcDbLine
 10
1539.766441477824
 20
-402.4388860633861
 30
0.0
 11
1541.236690619788
 21
-401.7854420002909
 31
0.0
  0
LINE
  5
337
330
2AD
100
AcDbEntity
  8
Fills_ Pattern_Pen_No__153
  6
Continuous
100
AcDbLine
 10
1541.236690619788
 20
-501.7854420002908
 30
0.0
 11
1541.236690619788
 21
-500.805275905648
 31
0.0
  0
LINE
  5
338
330
2AD
100
AcDbEntity
  8
Fills_ Pattern_Pen_No__153
  6
Continuous
100
AcDbLine
 10
1491.236690619787
 20
-451.7854420002909
 30
0.0
 11
1491.236690619787
 21
-450.805275905648
 31
0.0
  0
LINE
  5
339
330
2AD
100
AcDbEntity
  8
Fills_ Pattern_Pen_No__153
  6
Continuous
100
AcDbLine
 10
1541.236690619788
 20
-451.7854420002909
 30
0.0
 11
1541.236690619788
 21
-450.805275905648
 31
0.0
  0
LINE
  5
33A
330
2AD
100
AcDbEntity
  8
Fills_ Pattern_Pen_No__153
  6
Continuous
100
AcDbLine
 10
1491.236690619787
 20
-401.7854420002909
 30
0.0
 11
1491.236690619787
 21
-400.805275905648
 31
0.0
  0
LINE
  5
33B
330
2AD
100
AcDbEntity
  8
Fills_ Pattern_Pen_No__153
  6
Continuous
100
AcDbLine
 10
1541.236690619788
 20
-401.7854420002909
 30
0.0
 11
1541.236690619788
 21
-400.805275905648
 31
0.0
  0
LINE
  5
33C
330
2AD
100
AcDbEntity
  8
Fills_ Pattern_Pen_No__153
  6
Continuous
100
AcDbLine
 10
1557.30567138843
 20
-494.8996932317388
 30
0.0
 11
1557.596333797767
 21
-496.1350084714196
 31
0.0
  0
LINE
  5
33D
330
2AD
100
AcDbEntity
  8
Fills_ Pattern_Pen_No__153
  6
Continuous
100
AcDbLine
 10
1507.30567138843
 20
-444.8996932317388
 30
0.0
 11
1507.596333797767
 21
-446.1350084714196
 31
0.0
  0
LINE
  5
33E
330
2AD
100
AcDbEntity
  8
Fills_ Pattern_Pen_No__153
  6
Continuous
100
AcDbLine
 10
1557.30567138843
 20
-444.8996932317388
 30
0.0
 11
1557.596333797767
 21
-446.1350084714196
 31
0.0
  0
LINE
  5
33F
330
2AD
100
AcDbEntity
  8
Fills_ Pattern_Pen_No__153
  6
Continuous
100
AcDbLine
 10
1507.30567138843
 20
-394.8996932317389
 30
0.0
 11
1507.596333797767
 21
-396.1350084714196
 31
0.0
  0
LINE
  5
340
330
2AD
100
AcDbEntity
  8
Fills_ Pattern_Pen_No__153
  6
Continuous
100
AcDbLine
 10
1557.30567138843
 20
-394.8996932317389
 30
0.0
 11
1557.596333797767
 21
-396.1350084714196
 31
0.0
  0
LINE
  5
341
330
2AD
100
AcDbEntity
  8
Fills_ Pattern_Pen_No__153
  6
Continuous
100
AcDbLine
 10
1557.596333797767
 20
-496.1350084714196
 30
0.0
 11
1558.104993014106
 21
-495.4083524480779
 31
0.0
  0
LINE
  5
342
330
2AD
100
AcDbEntity
  8
Fills_ Pattern_Pen_No__153
  6
Continuous
100
AcDbLine
 10
1507.596333797767
 20
-446.1350084714196
 30
0.0
 11
1508.104993014106
 21
-445.4083524480779
 31
0.0
  0
LINE
  5
343
330
2AD
100
AcDbEntity
  8
Fills_ Pattern_Pen_No__153
  6
Continuous
100
AcDbLine
 10
1557.596333797767
 20
-446.1350084714196
 30
0.0
 11
1558.104993014106
 21
-445.4083524480779
 31
0.0
  0
LINE
  5
344
330
2AD
100
AcDbEntity
  8
Fills_ Pattern_Pen_No__153
  6
Continuous
100
AcDbLine
 10
1507.596333797767
 20
-396.1350084714196
 30
0.0
 11
1508.104993014106
 21
-395.408352448078
 31
0.0
  0
LINE
  5
345
330
2AD
100
AcDbEntity
  8
Fills_ Pattern_Pen_No__153
  6
Continuous
100
AcDbLine
 10
1557.596333797767
 20
-396.1350084714196
 30
0.0
 11
1558.104993014106
 21
-395.408352448078
 31
0.0
  0
LINE
  5
346
330
2AD
100
AcDbEntity
  8
Fills_ Pattern_Pen_No__153
  6
Continuous
100
AcDbLine
 10
1558.104993014106
 20
-495.4083524480779
 30
0.0
 11
1557.814330604769
 21
-495.1903556410754
 31
0.0
  0
LINE
  5
347
330
2AD
100
AcDbEntity
  8
Fills_ Pattern_Pen_No__153
  6
Continuous
100
AcDbLine
 10
1508.104993014106
 20
-445.4083524480779
 30
0.0
 11
1507.814330604769
 21
-445.1903556410754
 31
0.0
  0
LINE
  5
348
330
2AD
100
AcDbEntity
  8
Fills_ Pattern_Pen_No__153
  6
Continuous
100
AcDbLine
 10
1558.104993014106
 20
-445.4083524480779
 30
0.0
 11
1557.814330604769
 21
-445.1903556410754
 31
0.0
  0
LINE
  5
349
330
2AD
100
AcDbEntity
  8
Fills_ Pattern_Pen_No__153
  6
Continuous
100
AcDbLine
 10
1508.104993014106
 20
-395.408352448078
 30
0.0
 11
1507.814330604769
 21
-395.1903556410755
 31
0.0
  0
LINE
  5
34A
330
2AD
100
AcDbEntity
  8
Fills_ Pattern_Pen_No__153
  6
Continuous
100
AcDbLine
 10
1558.104993014106
 20
-395.408352448078
 30
0.0
 11
1557.814330604769
 21
-395.1903556410755
 31
0.0
  0
LINE
  5
34B
330
2AD
100
AcDbEntity
  8
Fills_ Pattern_Pen_No__153
  6
Continuous
100
AcDbLine
 10
1557.814330604769
 20
-495.1903556410754
 30
0.0
 11
1557.30567138843
 21
-494.8996932317388
 31
0.0
  0
LINE
  5
34C
330
2AD
100
AcDbEntity
  8
Fills_ Pattern_Pen_No__153
  6
Continuous
100
AcDbLine
 10
1507.814330604769
 20
-445.1903556410754
 30
0.0
 11
1507.30567138843
 21
-444.8996932317388
 31
0.0
  0
LINE
  5
34D
330
2AD
100
AcDbEntity
  8
Fills_ Pattern_Pen_No__153
  6
Continuous
100
AcDbLine
 10
1557.814330604769
 20
-445.1903556410754
 30
0.0
 11
1557.30567138843
 21
-444.8996932317388
 31
0.0
  0
LINE
  5
34E
330
2AD
100
AcDbEntity
  8
Fills_ Pattern_Pen_No__153
  6
Continuous
100
AcDbLine
 10
1507.814330604769
 20
-395.1903556410755
 30
0.0
 11
1507.30567138843
 21
-394.8996932317389
 31
0.0
  0
LINE
  5
34F
330
2AD
100
AcDbEntity
  8
Fills_ Pattern_Pen_No__153
  6
Continuous
100
AcDbLine
 10
1557.814330604769
 20
-395.1903556410755
 30
0.0
 11
1557.30567138843
 21
-394.8996932317389
 31
0.0
  0
LINE
  5
350
330
2AD
100
AcDbEntity
  8
Fills_ Pattern_Pen_No__153
  6
Continuous
100
AcDbLine
 10
1535.717921901087
 20
-508.4215608599904
 30
0.0
 11
1536.081249912758
 21
-509.4388792926687
 31
0.0
  0
LINE
  5
351
330
2AD
100
AcDbEntity
  8
Fills_ Pattern_Pen_No__153
  6
Continuous
100
AcDbLine
 10
1535.717921901087
 20
-458.4215608599904
 30
0.0
 11
1536.081249912758
 21
-459.4388792926687
 31
0.0
  0
LINE
  5
352
330
2AD
100
AcDbEntity
  8
Fills_ Pattern_Pen_No__153
  6
Continuous
100
AcDbLine
 10
1485.717921901087
 20
-408.4215608599904
 30
0.0
 11
1486.081249912758
 21
-409.4388792926687
 31
0.0
  0
LINE
  5
353
330
2AD
100
AcDbEntity
  8
Fills_ Pattern_Pen_No__153
  6
Continuous
100
AcDbLine
 10
1535.717921901087
 20
-408.4215608599904
 30
0.0
 11
1536.081249912758
 21
-409.4388792926687
 31
0.0
  0
LINE
  5
354
330
2AD
100
AcDbEntity
  8
Fills_ Pattern_Pen_No__153
  6
Continuous
100
AcDbLine
 10
1485.717921901087
 20
-358.4215608599905
 30
0.0
 11
1486.081249912758
 21
-359.4388792926688
 31
0.0
  0
LINE
  5
355
330
2AD
100
AcDbEntity
  8
Fills_ Pattern_Pen_No__153
  6
Continuous
100
AcDbLine
 10
1535.717921901087
 20
-358.4215608599905
 30
0.0
 11
1536.081249912758
 21
-359.4388792926688
 31
0.0
  0
LINE
  5
356
330
2AD
100
AcDbEntity
  8
Fills_ Pattern_Pen_No__153
  6
Continuous
100
AcDbLine
 10
1536.081249912758
 20
-509.4388792926687
 30
0.0
 11
1536.371912322094
 21
-508.7848888716613
 31
0.0
  0
LINE
  5
357
330
2AD
100
AcDbEntity
  8
Fills_ Pattern_Pen_No__153
  6
Continuous
100
AcDbLine
 10
1536.081249912758
 20
-459.4388792926687
 30
0.0
 11
1536.371912322094
 21
-458.7848888716612
 31
0.0
  0
LINE
  5
358
330
2AD
100
AcDbEntity
  8
Fills_ Pattern_Pen_No__153
  6
Continuous
100
AcDbLine
 10
1486.081249912758
 20
-409.4388792926687
 30
0.0
 11
1486.371912322094
 21
-408.7848888716612
 31
0.0
  0
LINE
  5
359
330
2AD
100
AcDbEntity
  8
Fills_ Pattern_Pen_No__153
  6
Continuous
100
AcDbLine
 10
1536.081249912758
 20
-409.4388792926687
 30
0.0
 11
1536.371912322094
 21
-408.7848888716612
 31
0.0
  0
LINE
  5
35A
330
2AD
100
AcDbEntity
  8
Fills_ Pattern_Pen_No__153
  6
Continuous
100
AcDbLine
 10
1486.081249912758
 20
-359.4388792926688
 30
0.0
 11
1486.371912322094
 21
-358.7848888716613
 31
0.0
  0
LINE
  5
35B
330
2AD
100
AcDbEntity
  8
Fills_ Pattern_Pen_No__153
  6
Continuous
100
AcDbLine
 10
1536.081249912758
 20
-359.4388792926688
 30
0.0
 11
1536.371912322094
 21
-358.7848888716613
 31
0.0
  0
LINE
  5
35C
330
2AD
100
AcDbEntity
  8
Fills_ Pattern_Pen_No__153
  6
Continuous
100
AcDbLine
 10
1536.371912322094
 20
-508.7848888716613
 30
0.0
 11
1535.717921901087
 21
-508.4215608599904
 31
0.0
  0
LINE
  5
35D
330
2AD
100
AcDbEntity
  8
Fills_ Pattern_Pen_No__153
  6
Continuous
100
AcDbLine
 10
1536.371912322094
 20
-458.7848888716612
 30
0.0
 11
1535.717921901087
 21
-458.4215608599904
 31
0.0
  0
LINE
  5
35E
330
2AD
100
AcDbEntity
  8
Fills_ Pattern_Pen_No__153
  6
Continuous
100
AcDbLine
 10
1486.371912322094
 20
-408.7848888716612
 30
0.0
 11
1485.717921901087
 21
-408.4215608599904
 31
0.0
  0
LINE
  5
35F
330
2AD
100
AcDbEntity
  8
Fills_ Pattern_Pen_No__153
  6
Continuous
100
AcDbLine
 10
1536.371912322094
 20
-408.7848888716612
 30
0.0
 11
1535.717921901087
 21
-408.4215608599904
 31
0.0
  0
LINE
  5
360
330
2AD
100
AcDbEntity
  8
Fills_ Pattern_Pen_No__153
  6
Continuous
100
AcDbLine
 10
1486.371912322094
 20
-358.7848888716613
 30
0.0
 11
1485.717921901087
 21
-358.4215608599905
 31
0.0
  0
LINE
  5
361
330
2AD
100
AcDbEntity
  8
Fills_ Pattern_Pen_No__153
  6
Continuous
100
AcDbLine
 10
1536.371912322094
 20
-358.7848888716613
 30
0.0
 11
1535.717921901087
 21
-358.4215608599905
 31
0.0
  0
LINE
  5
362
330
2AD
100
AcDbEntity
  8
Fills_ Pattern_Pen_No__153
  6
Continuous
100
AcDbLine
 10
1566.907428442714
 20
-500.0
 30
0.0
 11
1567.560872505809
 21
-501.166585456858
 31
0.0
  0
LINE
  5
363
330
2AD
100
AcDbEntity
  8
Fills_ Pattern_Pen_No__153
  6
Continuous
100
AcDbLine
 10
1516.907428442714
 20
-449.9999999999999
 30
0.0
 11
1517.560872505809
 21
-451.1665854568579
 31
0.0
  0
LINE
  5
364
330
2AD
100
AcDbEntity
  8
Fills_ Pattern_Pen_No__153
  6
Continuous
100
AcDbLine
 10
1566.907428442714
 20
-449.9999999999999
 30
0.0
 11
1567.560872505809
 21
-451.1665854568579
 31
0.0
  0
LINE
  5
365
330
2AD
100
AcDbEntity
  8
Fills_ Pattern_Pen_No__153
  6
Continuous
100
AcDbLine
 10
1466.907428442714
 20
-399.9999999999999
 30
0.0
 11
1467.560872505809
 21
-401.1665854568579
 31
0.0
  0
LINE
  5
366
330
2AD
100
AcDbEntity
  8
Fills_ Pattern_Pen_No__153
  6
Continuous
100
AcDbLine
 10
1516.907428442714
 20
-399.9999999999999
 30
0.0
 11
1517.560872505809
 21
-401.1665854568579
 31
0.0
  0
LINE
  5
367
330
2AD
100
AcDbEntity
  8
Fills_ Pattern_Pen_No__153
  6
Continuous
100
AcDbLine
 10
1566.907428442714
 20
-399.9999999999999
 30
0.0
 11
1567.560872505809
 21
-401.1665854568579
 31
0.0
  0
LINE
  5
368
330
2AD
100
AcDbEntity
  8
Fills_ Pattern_Pen_No__153
  6
Continuous
100
AcDbLine
 10
1567.560872505809
 20
-501.166585456858
 30
0.0
 11
1568.867760631999
 21
-501.0032244410842
 31
0.0
  0
LINE
  5
369
330
2AD
100
AcDbEntity
  8
Fills_ Pattern_Pen_No__153
  6
Continuous
100
AcDbLine
 10
1517.560872505809
 20
-451.1665854568579
 30
0.0
 11
1518.867760631999
 21
-451.0032244410842
 31
0.0
  0
LINE
  5
36A
330
2AD
100
AcDbEntity
  8
Fills_ Pattern_Pen_No__153
  6
Continuous
100
AcDbLine
 10
1567.560872505809
 20
-451.1665854568579
 30
0.0
 11
1568.867760631999
 21
-451.0032244410842
 31
0.0
  0
LINE
  5
36B
330
2AD
100
AcDbEntity
  8
Fills_ Pattern_Pen_No__153
  6
Continuous
100
AcDbLine
 10
1467.560872505809
 20
-401.1665854568579
 30
0.0
 11
1468.867760631999
 21
-401.0032244410841
 31
0.0
  0
LINE
  5
36C
330
2AD
100
AcDbEntity
  8
Fills_ Pattern_Pen_No__153
  6
Continuous
100
AcDbLine
 10
1517.560872505809
 20
-401.1665854568579
 30
0.0
 11
1518.867760631999
 21
-401.0032244410841
 31
0.0
  0
LINE
  5
36D
330
2AD
100
AcDbEntity
  8
Fills_ Pattern_Pen_No__153
  6
Continuous
100
AcDbLine
 10
1567.560872505809
 20
-401.1665854568579
 30
0.0
 11
1568.867760631999
 21
-401.0032244410841
 31
0.0
  0
LINE
  5
36E
330
2AD
100
AcDbEntity
  8
Fills_ Pattern_Pen_No__153
  6
Continuous
100
AcDbLine
 10
1568.867760631999
 20
-501.0032244410842
 30
0.0
 11
1569.521204695095
 21
-500.0
 31
0.0
  0
LINE
  5
36F
330
2AD
100
AcDbEntity
  8
Fills_ Pattern_Pen_No__153
  6
Continuous
100
AcDbLine
 10
1518.867760631999
 20
-451.0032244410842
 30
0.0
 11
1519.521204695095
 21
-449.9999999999999
 31
0.0
  0
LINE
  5
370
330
2AD
100
AcDbEntity
  8
Fills_ Pattern_Pen_No__153
  6
Continuous
100
AcDbLine
 10
1568.867760631999
 20
-451.0032244410842
 30
0.0
 11
1569.521204695095
 21
-449.9999999999999
 31
0.0
  0
LINE
  5
371
330
2AD
100
AcDbEntity
  8
Fills_ Pattern_Pen_No__153
  6
Continuous
100
AcDbLine
 10
1468.867760631999
 20
-401.0032244410841
 30
0.0
 11
1469.521204695094
 21
-399.9999999999999
 31
0.0
  0
LINE
  5
372
330
2AD
100
AcDbEntity
  8
Fills_ Pattern_Pen_No__153
  6
Continuous
100
AcDbLine
 10
1518.867760631999
 20
-401.0032244410841
 30
0.0
 11
1519.521204695095
 21
-399.9999999999999
 31
0.0
  0
LINE
  5
373
330
2AD
100
AcDbEntity
  8
Fills_ Pattern_Pen_No__153
  6
Continuous
100
AcDbLine
 10
1568.867760631999
 20
-401.0032244410841
 30
0.0
 11
1569.521204695095
 21
-399.9999999999999
 31
0.0
  0
LINE
  5
374
330
2AD
100
AcDbEntity
  8
Fills_ Pattern_Pen_No__153
  6
Continuous
100
AcDbLine
 10
1545.108710484281
 20
-478.7404485888904
 30
0.0
 11
1544.743224223259
 21
-482.0298249380857
 31
0.0
  0
LINE
  5
375
330
2AD
100
AcDbEntity
  8
Fills_ Pattern_Pen_No__153
  6
Continuous
100
AcDbLine
 10
1495.108710484281
 20
-428.7404485888903
 30
0.0
 11
1494.743224223259
 21
-432.0298249380857
 31
0.0
  0
LINE
  5
376
330
2AD
100
AcDbEntity
  8
Fills_ Pattern_Pen_No__153
  6
Continuous
100
AcDbLine
 10
1545.108710484281
 20
-428.7404485888903
 30
0.0
 11
1544.743224223259
 21
-432.0298249380857
 31
0.0
  0
LINE
  5
377
330
2AD
100
AcDbEntity
  8
Fills_ Pattern_Pen_No__153
  6
Continuous
100
AcDbLine
 10
1495.108710484281
 20
-378.7404485888905
 30
0.0
 11
1494.743224223259
 21
-382.0298249380858
 31
0.0
  0
LINE
  5
378
330
2AD
100
AcDbEntity
  8
Fills_ Pattern_Pen_No__153
  6
Continuous
100
AcDbLine
 10
1545.108710484281
 20
-378.7404485888905
 30
0.0
 11
1544.743224223259
 21
-382.0298249380858
 31
0.0
  0
LINE
  5
379
330
2AD
100
AcDbEntity
  8
Fills_ Pattern_Pen_No__153
  6
Continuous
100
AcDbLine
 10
1544.743224223259
 20
-482.0298249380857
 30
0.0
 11
1546.022426136835
 21
-479.8369073719555
 31
0.0
  0
LINE
  5
37A
330
2AD
100
AcDbEntity
  8
Fills_ Pattern_Pen_No__153
  6
Continuous
100
AcDbLine
 10
1494.743224223259
 20
-432.0298249380857
 30
0.0
 11
1496.022426136835
 21
-429.8369073719555
 31
0.0
  0
LINE
  5
37B
330
2AD
100
AcDbEntity
  8
Fills_ Pattern_Pen_No__153
  6
Continuous
100
AcDbLine
 10
1544.743224223259
 20
-432.0298249380857
 30
0.0
 11
1546.022426136835
 21
-429.8369073719555
 31
0.0
  0
LINE
  5
37C
330
2AD
100
AcDbEntity
  8
Fills_ Pattern_Pen_No__153
  6
Continuous
100
AcDbLine
 10
1494.743224223259
 20
-382.0298249380858
 30
0.0
 11
1496.022426136835
 21
-379.8369073719555
 31
0.0
  0
LINE
  5
37D
330
2AD
100
AcDbEntity
  8
Fills_ Pattern_Pen_No__153
  6
Continuous
100
AcDbLine
 10
1544.743224223259
 20
-382.0298249380858
 30
0.0
 11
1546.022426136835
 21
-379.8369073719555
 31
0.0
  0
LINE
  5
37E
330
2AD
100
AcDbEntity
  8
Fills_ Pattern_Pen_No__153
  6
Continuous
100
AcDbLine
 10
1546.022426136835
 20
-479.8369073719555
 30
0.0
 11
1545.108710484281
 21
-478.7404485888904
 31
0.0
  0
LINE
  5
37F
330
2AD
100
AcDbEntity
  8
Fills_ Pattern_Pen_No__153
  6
Continuous
100
AcDbLine
 10
1496.022426136835
 20
-429.8369073719555
 30
0.0
 11
1495.108710484281
 21
-428.7404485888903
 31
0.0
  0
LINE
  5
380
330
2AD
100
AcDbEntity
  8
Fills_ Pattern_Pen_No__153
  6
Continuous
100
AcDbLine
 10
1546.022426136835
 20
-429.8369073719555
 30
0.0
 11
1545.108710484281
 21
-428.7404485888903
 31
0.0
  0
LINE
  5
381
330
2AD
100
AcDbEntity
  8
Fills_ Pattern_Pen_No__153
  6
Continuous
100
AcDbLine
 10
1496.022426136835
 20
-379.8369073719555
 30
0.0
 11
1495.108710484281
 21
-378.7404485888905
 31
0.0
  0
LINE
  5
382
330
2AD
100
AcDbEntity
  8
Fills_ Pattern_Pen_No__153
  6
Continuous
100
AcDbLine
 10
1546.022426136835
 20
-379.8369073719555
 30
0.0
 11
1545.108710484281
 21
-378.7404485888905
 31
0.0
  0
LINE
  5
383
330
2AD
100
AcDbEntity
  8
Fills_ Pattern_Pen_No__153
  6
Continuous
100
AcDbLine
 10
1547.96098281248
 20
-490.8731129625812
 30
0.0
 11
1548.509212204013
 21
-492.335058006668
 31
0.0
  0
LINE
  5
384
330
2AD
100
AcDbEntity
  8
Fills_ Pattern_Pen_No__153
  6
Continuous
100
AcDbLine
 10
1497.96098281248
 20
-440.8731129625812
 30
0.0
 11
1498.509212204013
 21
-442.3350580066681
 31
0.0
  0
LINE
  5
385
330
2AD
100
AcDbEntity
  8
Fills_ Pattern_Pen_No__153
  6
Continuous
100
AcDbLine
 10
1547.96098281248
 20
-440.8731129625812
 30
0.0
 11
1548.509212204013
 21
-442.3350580066681
 31
0.0
  0
LINE
  5
386
330
2AD
100
AcDbEntity
  8
Fills_ Pattern_Pen_No__153
  6
Continuous
100
AcDbLine
 10
1497.96098281248
 20
-390.8731129625813
 30
0.0
 11
1498.509212204013
 21
-392.3350580066681
 31
0.0
  0
LINE
  5
387
330
2AD
100
AcDbEntity
  8
Fills_ Pattern_Pen_No__153
  6
Continuous
100
AcDbLine
 10
1547.96098281248
 20
-390.8731129625813
 30
0.0
 11
1548.509212204013
 21
-392.3350580066681
 31
0.0
  0
LINE
  5
388
330
2AD
100
AcDbEntity
  8
Fills_ Pattern_Pen_No__153
  6
Continuous
100
AcDbLine
 10
1548.509212204013
 20
-492.335058006668
 30
0.0
 11
1549.788414117589
 21
-490.8731129625812
 31
0.0
  0
LINE
  5
389
330
2AD
100
AcDbEntity
  8
Fills_ Pattern_Pen_No__153
  6
Continuous
100
AcDbLine
 10
1498.509212204013
 20
-442.3350580066681
 30
0.0
 11
1499.788414117588
 21
-440.8731129625812
 31
0.0
  0
LINE
  5
38A
330
2AD
100
AcDbEntity
  8
Fills_ Pattern_Pen_No__153
  6
Continuous
100
AcDbLine
 10
1548.509212204013
 20
-442.3350580066681
 30
0.0
 11
1549.788414117589
 21
-440.8731129625812
 31
0.0
  0
LINE
  5
38B
330
2AD
100
AcDbEntity
  8
Fills_ Pattern_Pen_No__153
  6
Continuous
100
AcDbLine
 10
1498.509212204013
 20
-392.3350580066681
 30
0.0
 11
1499.788414117588
 21
-390.8731129625813
 31
0.0
  0
LINE
  5
38C
330
2AD
100
AcDbEntity
  8
Fills_ Pattern_Pen_No__153
  6
Continuous
100
AcDbLine
 10
1548.509212204013
 20
-392.3350580066681
 30
0.0
 11
1549.788414117589
 21
-390.8731129625813
 31
0.0
  0
LINE
  5
38D
330
2AD
100
AcDbEntity
  8
Fills_ Pattern_Pen_No__153
  6
Continuous
100
AcDbLine
 10
1549.788414117589
 20
-490.8731129625812
 30
0.0
 11
1547.96098281248
 21
-490.8731129625812
 31
0.0
  0
LINE
  5
38E
330
2AD
100
AcDbEntity
  8
Fills_ Pattern_Pen_No__153
  6
Continuous
100
AcDbLine
 10
1499.788414117588
 20
-440.8731129625812
 30
0.0
 11
1497.96098281248
 21
-440.8731129625812
 31
0.0
  0
LINE
  5
38F
330
2AD
100
AcDbEntity
  8
Fills_ Pattern_Pen_No__153
  6
Continuous
100
AcDbLine
 10
1549.788414117589
 20
-440.8731129625812
 30
0.0
 11
1547.96098281248
 21
-440.8731129625812
 31
0.0
  0
LINE
  5
390
330
2AD
100
AcDbEntity
  8
Fills_ Pattern_Pen_No__153
  6
Continuous
100
AcDbLine
 10
1499.788414117588
 20
-390.8731129625813
 30
0.0
 11
1497.96098281248
 21
-390.8731129625813
 31
0.0
  0
LINE
  5
391
330
2AD
100
AcDbEntity
  8
Fills_ Pattern_Pen_No__153
  6
Continuous
100
AcDbLine
 10
1549.788414117589
 20
-390.8731129625813
 30
0.0
 11
1547.96098281248
 21
-390.8731129625813
 31
0.0
  0
LINE
  5
392
330
2AD
100
AcDbEntity
  8
Fills_ Pattern_Pen_No__153
  6
Continuous
100
AcDbLine
 10
1529.138440369862
 20
-484.0399993737052
 30
0.0
 11
1528.407467847818
 21
-485.5019444177919
 31
0.0
  0
LINE
  5
393
330
2AD
100
AcDbEntity
  8
Fills_ Pattern_Pen_No__153
  6
Continuous
100
AcDbLine
 10
1579.138440369862
 20
-484.0399993737052
 30
0.0
 11
1578.407467847819
 21
-485.5019444177919
 31
0.0
  0
LINE
  5
394
330
2AD
100
AcDbEntity
  8
Fills_ Pattern_Pen_No__153
  6
Continuous
100
AcDbLine
 10
1529.138440369862
 20
-434.0399993737052
 30
0.0
 11
1528.407467847818
 21
-435.5019444177919
 31
0.0
  0
LINE
  5
395
330
2AD
100
AcDbEntity
  8
Fills_ Pattern_Pen_No__153
  6
Continuous
100
AcDbLine
 10
1579.138440369862
 20
-434.0399993737052
 30
0.0
 11
1578.407467847819
 21
-435.5019444177919
 31
0.0
  0
LINE
  5
396
330
2AD
100
AcDbEntity
  8
Fills_ Pattern_Pen_No__153
  6
Continuous
100
AcDbLine
 10
1479.138440369862
 20
-384.0399993737052
 30
0.0
 11
1478.407467847819
 21
-385.501944417792
 31
0.0
  0
LINE
  5
397
330
2AD
100
AcDbEntity
  8
Fills_ Pattern_Pen_No__153
  6
Continuous
100
AcDbLine
 10
1529.138440369862
 20
-384.0399993737052
 30
0.0
 11
1528.407467847818
 21
-385.501944417792
 31
0.0
  0
LINE
  5
398
330
2AD
100
AcDbEntity
  8
Fills_ Pattern_Pen_No__153
  6
Continuous
100
AcDbLine
 10
1579.138440369862
 20
-384.0399993737052
 30
0.0
 11
1578.407467847819
 21
-385.501944417792
 31
0.0
  0
LINE
  5
399
330
2AD
100
AcDbEntity
  8
Fills_ Pattern_Pen_No__153
  6
Continuous
100
AcDbLine
 10
1528.407467847818
 20
-485.5019444177919
 30
0.0
 11
1530.052156022416
 21
-485.1364581567702
 31
0.0
  0
LINE
  5
39A
330
2AD
100
AcDbEntity
  8
Fills_ Pattern_Pen_No__153
  6
Continuous
100
AcDbLine
 10
1578.407467847819
 20
-485.5019444177919
 30
0.0
 11
1580.052156022416
 21
-485.1364581567702
 31
0.0
  0
LINE
  5
39B
330
2AD
100
AcDbEntity
  8
Fills_ Pattern_Pen_No__153
  6
Continuous
100
AcDbLine
 10
1528.407467847818
 20
-435.5019444177919
 30
0.0
 11
1530.052156022416
 21
-435.1364581567702
 31
0.0
  0
LINE
  5
39C
330
2AD
100
AcDbEntity
  8
Fills_ Pattern_Pen_No__153
  6
Continuous
100
AcDbLine
 10
1578.407467847819
 20
-435.5019444177919
 30
0.0
 11
1580.052156022416
 21
-435.1364581567702
 31
0.0
  0
LINE
  5
39D
330
2AD
100
AcDbEntity
  8
Fills_ Pattern_Pen_No__153
  6
Continuous
100
AcDbLine
 10
1478.407467847819
 20
-385.501944417792
 30
0.0
 11
1480.052156022416
 21
-385.1364581567704
 31
0.0
  0
LINE
  5
39E
330
2AD
100
AcDbEntity
  8
Fills_ Pattern_Pen_No__153
  6
Continuous
100
AcDbLine
 10
1528.407467847818
 20
-385.501944417792
 30
0.0
 11
1530.052156022416
 21
-385.1364581567704
 31
0.0
  0
LINE
  5
39F
330
2AD
100
AcDbEntity
  8
Fills_ Pattern_Pen_No__153
  6
Continuous
100
AcDbLine
 10
1578.407467847819
 20
-385.501944417792
 30
0.0
 11
1580.052156022416
 21
-385.1364581567704
 31
0.0
  0
LINE
  5
3A0
330
2AD
100
AcDbEntity
  8
Fills_ Pattern_Pen_No__153
  6
Continuous
100
AcDbLine
 10
1530.052156022416
 20
-485.1364581567702
 30
0.0
 11
1529.138440369862
 21
-484.0399993737052
 31
0.0
  0
LINE
  5
3A1
330
2AD
100
AcDbEntity
  8
Fills_ Pattern_Pen_No__153
  6
Continuous
100
AcDbLine
 10
1580.052156022416
 20
-485.1364581567702
 30
0.0
 11
1579.138440369862
 21
-484.0399993737052
 31
0.0
  0
LINE
  5
3A2
330
2AD
100
AcDbEntity
  8
Fills_ Pattern_Pen_No__153
  6
Continuous
100
AcDbLine
 10
1530.052156022416
 20
-435.1364581567702
 30
0.0
 11
1529.138440369862
 21
-434.0399993737052
 31
0.0
  0
LINE
  5
3A3
330
2AD
100
AcDbEntity
  8
Fills_ Pattern_Pen_No__153
  6
Continuous
100
AcDbLine
 10
1580.052156022416
 20
-435.1364581567702
 30
0.0
 11
1579.138440369862
 21
-434.0399993737052
 31
0.0
  0
LINE
  5
3A4
330
2AD
100
AcDbEntity
  8
Fills_ Pattern_Pen_No__153
  6
Continuous
100
AcDbLine
 10
1480.052156022416
 20
-385.1364581567704
 30
0.0
 11
1479.138440369862
 21
-384.0399993737052
 31
0.0
  0
LINE
  5
3A5
330
2AD
100
AcDbEntity
  8
Fills_ Pattern_Pen_No__153
  6
Continuous
100
AcDbLine
 10
1530.052156022416
 20
-385.1364581567704
 30
0.0
 11
1529.138440369862
 21
-384.0399993737052
 31
0.0
  0
LINE
  5
3A6
330
2AD
100
AcDbEntity
  8
Fills_ Pattern_Pen_No__153
  6
Continuous
100
AcDbLine
 10
1580.052156022416
 20
-385.1364581567704
 30
0.0
 11
1579.138440369862
 21
-384.0399993737052
 31
0.0
  0
LINE
  5
3A7
330
2AD
100
AcDbEntity
  8
Fills_ Pattern_Pen_No__153
  6
Continuous
100
AcDbLine
 10
1520.72717186799
 20
-483.5770023930034
 30
0.0
 11
1520.884219741955
 21
-483.8387488496114
 31
0.0
  0
LINE
  5
3A8
330
2AD
100
AcDbEntity
  8
Fills_ Pattern_Pen_No__153
  6
Continuous
100
AcDbLine
 10
1570.727171867991
 20
-483.5770023930034
 30
0.0
 11
1570.884219741955
 21
-483.8387488496114
 31
0.0
  0
LINE
  5
3A9
330
2AD
100
AcDbEntity
  8
Fills_ Pattern_Pen_No__153
  6
Continuous
100
AcDbLine
 10
1520.72717186799
 20
-433.5770023930035
 30
0.0
 11
1520.884219741955
 21
-433.8387488496114
 31
0.0
  0
LINE
  5
3AA
330
2AD
100
AcDbEntity
  8
Fills_ Pattern_Pen_No__153
  6
Continuous
100
AcDbLine
 10
1570.727171867991
 20
-433.5770023930035
 30
0.0
 11
1570.884219741955
 21
-433.8387488496114
 31
0.0
  0
LINE
  5
3AB
330
2AD
100
AcDbEntity
  8
Fills_ Pattern_Pen_No__153
  6
Continuous
100
AcDbLine
 10
1470.72717186799
 20
-383.5770023930035
 30
0.0
 11
1470.884219741955
 21
-383.8387488496114
 31
0.0
  0
LINE
  5
3AC
330
2AD
100
AcDbEntity
  8
Fills_ Pattern_Pen_No__153
  6
Continuous
100
AcDbLine
 10
1520.72717186799
 20
-383.5770023930035
 30
0.0
 11
1520.884219741955
 21
-383.8387488496114
 31
0.0
  0
LINE
  5
3AD
330
2AD
100
AcDbEntity
  8
Fills_ Pattern_Pen_No__153
  6
Continuous
100
AcDbLine
 10
1570.727171867991
 20
-383.5770023930035
 30
0.0
 11
1570.884219741955
 21
-383.8387488496114
 31
0.0
  0
LINE
  5
3AE
330
2AD
100
AcDbEntity
  8
Fills_ Pattern_Pen_No__153
  6
Continuous
100
AcDbLine
 10
1543.342065718912
 20
-474.9917186162647
 30
0.0
 11
1543.027969970983
 21
-475.3581636555157
 31
0.0
  0
LINE
  5
3AF
330
2AD
100
AcDbEntity
  8
Fills_ Pattern_Pen_No__153
  6
Continuous
100
AcDbLine
 10
1493.342065718912
 20
-424.9917186162647
 30
0.0
 11
1493.027969970983
 21
-425.3581636555158
 31
0.0
  0
LINE
  5
3B0
330
2AD
100
AcDbEntity
  8
Fills_ Pattern_Pen_No__153
  6
Continuous
100
AcDbLine
 10
1543.342065718912
 20
-424.9917186162647
 30
0.0
 11
1543.027969970983
 21
-425.3581636555158
 31
0.0
  0
LINE
  5
3B1
330
2AD
100
AcDbEntity
  8
Fills_ Pattern_Pen_No__153
  6
Continuous
100
AcDbLine
 10
1493.342065718912
 20
-374.9917186162647
 30
0.0
 11
1493.027969970983
 21
-375.3581636555158
 31
0.0
  0
LINE
  5
3B2
330
2AD
100
AcDbEntity
  8
Fills_ Pattern_Pen_No__153
  6
Continuous
100
AcDbLine
 10
1543.342065718912
 20
-374.9917186162647
 30
0.0
 11
1543.027969970983
 21
-375.3581636555158
 31
0.0
  0
LINE
  5
3B3
330
2AD
100
AcDbEntity
  8
Fills_ Pattern_Pen_No__153
  6
Continuous
100
AcDbLine
 10
1527.337540222351
 20
-493.5606760218331
 30
0.0
 11
1527.44694564917
 21
-494.2171085827471
 31
0.0
  0
LINE
  5
3B4
330
2AD
100
AcDbEntity
  8
Fills_ Pattern_Pen_No__153
  6
Continuous
100
AcDbLine
 10
1577.337540222351
 20
-493.5606760218331
 30
0.0
 11
1577.44694564917
 21
-494.2171085827471
 31
0.0
  0
LINE
  5
3B5
330
2AD
100
AcDbEntity
  8
Fills_ Pattern_Pen_No__153
  6
Continuous
100
AcDbLine
 10
1527.337540222351
 20
-443.5606760218332
 30
0.0
 11
1527.44694564917
 21
-444.2171085827471
 31
0.0
  0
LINE
  5
3B6
330
2AD
100
AcDbEntity
  8
Fills_ Pattern_Pen_No__153
  6
Continuous
100
AcDbLine
 10
1577.337540222351
 20
-443.5606760218332
 30
0.0
 11
1577.44694564917
 21
-444.2171085827471
 31
0.0
  0
LINE
  5
3B7
330
2AD
100
AcDbEntity
  8
Fills_ Pattern_Pen_No__153
  6
Continuous
100
AcDbLine
 10
1477.337540222351
 20
-393.5606760218332
 30
0.0
 11
1477.44694564917
 21
-394.2171085827472
 31
0.0
  0
LINE
  5
3B8
330
2AD
100
AcDbEntity
  8
Fills_ Pattern_Pen_No__153
  6
Continuous
100
AcDbLine
 10
1527.337540222351
 20
-393.5606760218332
 30
0.0
 11
1527.44694564917
 21
-394.2171085827472
 31
0.0
  0
LINE
  5
3B9
330
2AD
100
AcDbEntity
  8
Fills_ Pattern_Pen_No__153
  6
Continuous
100
AcDbLine
 10
1577.337540222351
 20
-393.5606760218332
 30
0.0
 11
1577.44694564917
 21
-394.2171085827472
 31
0.0
  0
LINE
  5
3BA
330
2AD
100
AcDbEntity
  8
Fills_ Pattern_Pen_No__153
  6
Continuous
100
AcDbLine
 10
1542.327803640272
 20
-482.6201333399334
 30
0.0
 11
1542.54661449391
 21
-483.1671604740283
 31
0.0
  0
LINE
  5
3BB
330
2AD
100
AcDbEntity
  8
Fills_ Pattern_Pen_No__153
  6
Continuous
100
AcDbLine
 10
1492.327803640272
 20
-432.6201333399333
 30
0.0
 11
1492.54661449391
 21
-433.1671604740283
 31
0.0
  0
LINE
  5
3BC
330
2AD
100
AcDbEntity
  8
Fills_ Pattern_Pen_No__153
  6
Continuous
100
AcDbLine
 10
1542.327803640272
 20
-432.6201333399333
 30
0.0
 11
1542.54661449391
 21
-433.1671604740283
 31
0.0
  0
LINE
  5
3BD
330
2AD
100
AcDbEntity
  8
Fills_ Pattern_Pen_No__153
  6
Continuous
100
AcDbLine
 10
1492.327803640272
 20
-382.6201333399334
 30
0.0
 11
1492.54661449391
 21
-383.1671604740283
 31
0.0
  0
LINE
  5
3BE
330
2AD
100
AcDbEntity
  8
Fills_ Pattern_Pen_No__153
  6
Continuous
100
AcDbLine
 10
1542.327803640272
 20
-382.6201333399334
 30
0.0
 11
1542.54661449391
 21
-383.1671604740283
 31
0.0
  0
LINE
  5
3BF
330
2AD
100
AcDbEntity
  8
Fills_ Pattern_Pen_No__153
  6
Continuous
100
AcDbLine
 10
1515.523474069617
 20
-480.4320248035534
 30
0.0
 11
1515.721333726619
 21
-480.1001348886176
 31
0.0
  0
LINE
  5
3C0
330
2AD
100
AcDbEntity
  8
Fills_ Pattern_Pen_No__153
  6
Continuous
100
AcDbLine
 10
1565.523474069617
 20
-480.4320248035534
 30
0.0
 11
1565.721333726618
 21
-480.1001348886176
 31
0.0
  0
LINE
  5
3C1
330
2AD
100
AcDbEntity
  8
Fills_ Pattern_Pen_No__153
  6
Continuous
100
AcDbLine
 10
1515.523474069617
 20
-430.4320248035534
 30
0.0
 11
1515.721333726619
 21
-430.1001348886177
 31
0.0
  0
LINE
  5
3C2
330
2AD
100
AcDbEntity
  8
Fills_ Pattern_Pen_No__153
  6
Continuous
100
AcDbLine
 10
1565.523474069617
 20
-430.4320248035534
 30
0.0
 11
1565.721333726618
 21
-430.1001348886177
 31
0.0
  0
LINE
  5
3C3
330
2AD
100
AcDbEntity
  8
Fills_ Pattern_Pen_No__153
  6
Continuous
100
AcDbLine
 10
1465.523474069617
 20
-380.4320248035534
 30
0.0
 11
1465.721333726619
 21
-380.1001348886177
 31
0.0
  0
LINE
  5
3C4
330
2AD
100
AcDbEntity
  8
Fills_ Pattern_Pen_No__153
  6
Continuous
100
AcDbLine
 10
1515.523474069617
 20
-380.4320248035534
 30
0.0
 11
1515.721333726619
 21
-380.1001348886177
 31
0.0
  0
LINE
  5
3C5
330
2AD
100
AcDbEntity
  8
Fills_ Pattern_Pen_No__153
  6
Continuous
100
AcDbLine
 10
1565.523474069617
 20
-380.4320248035534
 30
0.0
 11
1565.721333726618
 21
-380.1001348886177
 31
0.0
  0
LINE
  5
3C6
330
2AD
100
AcDbEntity
  8
Fills_ Pattern_Pen_No__153
  6
Continuous
100
AcDbLine
 10
1553.715896250203
 20
-516.9889334341116
 30
0.0
 11
1553.95284567408
 21
-517.1074081460499
 31
0.0
  0
LINE
  5
3C7
330
2AD
100
AcDbEntity
  8
Fills_ Pattern_Pen_No__153
  6
Continuous
100
AcDbLine
 10
1503.715896250203
 20
-466.9889334341116
 30
0.0
 11
1503.95284567408
 21
-467.1074081460499
 31
0.0
  0
LINE
  5
3C8
330
2AD
100
AcDbEntity
  8
Fills_ Pattern_Pen_No__153
  6
Continuous
100
AcDbLine
 10
1553.715896250203
 20
-466.9889334341116
 30
0.0
 11
1553.95284567408
 21
-467.1074081460499
 31
0.0
  0
LINE
  5
3C9
330
2AD
100
AcDbEntity
  8
Fills_ Pattern_Pen_No__153
  6
Continuous
100
AcDbLine
 10
1503.715896250203
 20
-416.9889334341116
 30
0.0
 11
1503.95284567408
 21
-417.1074081460499
 31
0.0
  0
LINE
  5
3CA
330
2AD
100
AcDbEntity
  8
Fills_ Pattern_Pen_No__153
  6
Continuous
100
AcDbLine
 10
1553.715896250203
 20
-416.9889334341116
 30
0.0
 11
1553.95284567408
 21
-417.1074081460499
 31
0.0
  0
LINE
  5
3CB
330
2AD
100
AcDbEntity
  8
Fills_ Pattern_Pen_No__153
  6
Continuous
100
AcDbLine
 10
1453.715896250203
 20
-366.9889334341116
 30
0.0
 11
1453.95284567408
 21
-367.1074081460499
 31
0.0
  0
LINE
  5
3CC
330
2AD
100
AcDbEntity
  8
Fills_ Pattern_Pen_No__153
  6
Continuous
100
AcDbLine
 10
1503.715896250203
 20
-366.9889334341116
 30
0.0
 11
1503.95284567408
 21
-367.1074081460499
 31
0.0
  0
LINE
  5
3CD
330
2AD
100
AcDbEntity
  8
Fills_ Pattern_Pen_No__153
  6
Continuous
100
AcDbLine
 10
1553.715896250203
 20
-366.9889334341116
 30
0.0
 11
1553.95284567408
 21
-367.1074081460499
 31
0.0
  0
LINE
  5
3CE
330
2AD
100
AcDbEntity
  8
Fills_ Pattern_Pen_No__153
  6
Continuous
100
AcDbLine
 10
1512.743429201302
 20
-487.1278407099512
 30
0.0
 11
1512.834524968815
 21
-487.3403975008142
 31
0.0
  0
LINE
  5
3CF
330
2AD
100
AcDbEntity
  8
Fills_ Pattern_Pen_No__153
  6
Continuous
100
AcDbLine
 10
1562.743429201302
 20
-487.1278407099512
 30
0.0
 11
1562.834524968816
 21
-487.3403975008142
 31
0.0
  0
LINE
  5
3D0
330
2AD
100
AcDbEntity
  8
Fills_ Pattern_Pen_No__153
  6
Continuous
100
AcDbLine
 10
1512.743429201302
 20
-437.1278407099512
 30
0.0
 11
1512.834524968815
 21
-437.3403975008142
 31
0.0
  0
LINE
  5
3D1
330
2AD
100
AcDbEntity
  8
Fills_ Pattern_Pen_No__153
  6
Continuous
100
AcDbLine
 10
1562.743429201302
 20
-437.1278407099512
 30
0.0
 11
1562.834524968816
 21
-437.3403975008142
 31
0.0
  0
LINE
  5
3D2
330
2AD
100
AcDbEntity
  8
Fills_ Pattern_Pen_No__153
  6
Continuous
100
AcDbLine
 10
1462.743429201302
 20
-387.1278407099512
 30
0.0
 11
1462.834524968815
 21
-387.3403975008142
 31
0.0
  0
LINE
  5
3D3
330
2AD
100
AcDbEntity
  8
Fills_ Pattern_Pen_No__153
  6
Continuous
100
AcDbLine
 10
1512.743429201302
 20
-387.1278407099512
 30
0.0
 11
1512.834524968815
 21
-387.3403975008142
 31
0.0
  0
LINE
  5
3D4
330
2AD
100
AcDbEntity
  8
Fills_ Pattern_Pen_No__153
  6
Continuous
100
AcDbLine
 10
1562.743429201302
 20
-387.1278407099512
 30
0.0
 11
1562.834524968816
 21
-387.3403975008142
 31
0.0
  0
LINE
  5
3D5
330
2AD
100
AcDbEntity
  8
Fills_ Pattern_Pen_No__153
  6
Continuous
100
AcDbLine
 10
1557.943901366629
 20
-512.983730298217
 30
0.0
 11
1557.056831906814
 21
-514.8989857985163
 31
0.0
  0
LINE
  5
3D6
330
2AD
100
AcDbEntity
  8
Fills_ Pattern_Pen_No__153
  6
Continuous
100
AcDbLine
 10
1507.943901366628
 20
-462.983730298217
 30
0.0
 11
1507.056831906814
 21
-464.8989857985163
 31
0.0
  0
LINE
  5
3D7
330
2AD
100
AcDbEntity
  8
Fills_ Pattern_Pen_No__153
  6
Continuous
100
AcDbLine
 10
1557.943901366629
 20
-462.983730298217
 30
0.0
 11
1557.056831906814
 21
-464.8989857985163
 31
0.0
  0
LINE
  5
3D8
330
2AD
100
AcDbEntity
  8
Fills_ Pattern_Pen_No__153
  6
Continuous
100
AcDbLine
 10
1507.943901366628
 20
-412.983730298217
 30
0.0
 11
1507.056831906814
 21
-414.8989857985162
 31
0.0
  0
LINE
  5
3D9
330
2AD
100
AcDbEntity
  8
Fills_ Pattern_Pen_No__153
  6
Continuous
100
AcDbLine
 10
1557.943901366629
 20
-412.983730298217
 30
0.0
 11
1557.056831906814
 21
-414.8989857985162
 31
0.0
  0
LINE
  5
3DA
330
2AD
100
AcDbEntity
  8
Fills_ Pattern_Pen_No__153
  6
Continuous
100
AcDbLine
 10
1457.943901366628
 20
-362.983730298217
 30
0.0
 11
1457.056831906814
 21
-364.8989857985163
 31
0.0
  0
LINE
  5
3DB
330
2AD
100
AcDbEntity
  8
Fills_ Pattern_Pen_No__153
  6
Continuous
100
AcDbLine
 10
1507.943901366628
 20
-362.983730298217
 30
0.0
 11
1507.056831906814
 21
-364.8989857985163
 31
0.0
  0
LINE
  5
3DC
330
2AD
100
AcDbEntity
  8
Fills_ Pattern_Pen_No__153
  6
Continuous
100
AcDbLine
 10
1557.943901366629
 20
-362.983730298217
 30
0.0
 11
1557.056831906814
 21
-364.8989857985163
 31
0.0
  0
LINE
  5
3DD
330
2AD
100
AcDbEntity
  8
Fills_ Pattern_Pen_No__153
  6
Continuous
100
AcDbLine
 10
1542.105161048796
 20
-471.8967961039793
 30
0.0
 11
1542.439955271414
 21
-472.1199922523914
 31
0.0
  0
LINE
  5
3DE
330
2AD
100
AcDbEntity
  8
Fills_ Pattern_Pen_No__153
  6
Continuous
100
AcDbLine
 10
1492.105161048797
 20
-421.8967961039793
 30
0.0
 11
1492.439955271415
 21
-422.1199922523913
 31
0.0
  0
LINE
  5
3DF
330
2AD
100
AcDbEntity
  8
Fills_ Pattern_Pen_No__153
  6
Continuous
100
AcDbLine
 10
1542.105161048796
 20
-421.8967961039793
 30
0.0
 11
1542.439955271414
 21
-422.1199922523913
 31
0.0
  0
LINE
  5
3E0
330
2AD
100
AcDbEntity
  8
Fills_ Pattern_Pen_No__153
  6
Continuous
100
AcDbLine
 10
1492.105161048797
 20
-371.8967961039794
 30
0.0
 11
1492.439955271415
 21
-372.1199922523914
 31
0.0
  0
LINE
  5
3E1
330
2AD
100
AcDbEntity
  8
Fills_ Pattern_Pen_No__153
  6
Continuous
100
AcDbLine
 10
1542.105161048796
 20
-371.8967961039794
 30
0.0
 11
1542.439955271414
 21
-372.1199922523914
 31
0.0
  0
LINE
  5
3E2
330
2AD
100
AcDbEntity
  8
Fills_ Pattern_Pen_No__153
  6
Continuous
100
AcDbLine
 10
1537.05983936502
 20
-505.7287903246789
 30
0.0
 11
1537.189200196172
 21
-506.1815532337095
 31
0.0
  0
LINE
  5
3E3
330
2AD
100
AcDbEntity
  8
Fills_ Pattern_Pen_No__153
  6
Continuous
100
AcDbLine
 10
1537.05983936502
 20
-455.7287903246789
 30
0.0
 11
1537.189200196172
 21
-456.1815532337094
 31
0.0
  0
LINE
  5
3E4
330
2AD
100
AcDbEntity
  8
Fills_ Pattern_Pen_No__153
  6
Continuous
100
AcDbLine
 10
1487.05983936502
 20
-405.7287903246789
 30
0.0
 11
1487.189200196171
 21
-406.1815532337094
 31
0.0
  0
LINE
  5
3E5
330
2AD
100
AcDbEntity
  8
Fills_ Pattern_Pen_No__153
  6
Continuous
100
AcDbLine
 10
1537.05983936502
 20
-405.7287903246789
 30
0.0
 11
1537.189200196172
 21
-406.1815532337094
 31
0.0
  0
LINE
  5
3E6
330
2AD
100
AcDbEntity
  8
Fills_ Pattern_Pen_No__153
  6
Continuous
100
AcDbLine
 10
1517.914436354585
 20
-479.4665028409957
 30
0.0
 11
1517.52635386113
 21
-479.7899049188747
 31
0.0
  0
LINE
  5
3E7
330
2AD
100
AcDbEntity
  8
Fills_ Pattern_Pen_No__153
  6
Continuous
100
AcDbLine
 10
1567.914436354585
 20
-479.4665028409957
 30
0.0
 11
1567.52635386113
 21
-479.7899049188747
 31
0.0
  0
LINE
  5
3E8
330
2AD
100
AcDbEntity
  8
Fills_ Pattern_Pen_No__153
  6
Continuous
100
AcDbLine
 10
1517.914436354585
 20
-429.4665028409956
 30
0.0
 11
1517.52635386113
 21
-429.7899049188747
 31
0.0
  0
LINE
  5
3E9
330
2AD
100
AcDbEntity
  8
Fills_ Pattern_Pen_No__153
  6
Continuous
100
AcDbLine
 10
1567.914436354585
 20
-429.4665028409956
 30
0.0
 11
1567.52635386113
 21
-429.7899049188747
 31
0.0
  0
LINE
  5
3EA
330
2AD
100
AcDbEntity
  8
Fills_ Pattern_Pen_No__153
  6
Continuous
100
AcDbLine
 10
1467.914436354585
 20
-379.4665028409957
 30
0.0
 11
1467.52635386113
 21
-379.7899049188747
 31
0.0
  0
LINE
  5
3EB
330
2AD
100
AcDbEntity
  8
Fills_ Pattern_Pen_No__153
  6
Continuous
100
AcDbLine
 10
1517.914436354585
 20
-379.4665028409957
 30
0.0
 11
1517.52635386113
 21
-379.7899049188747
 31
0.0
  0
LINE
  5
3EC
330
2AD
100
AcDbEntity
  8
Fills_ Pattern_Pen_No__153
  6
Continuous
100
AcDbLine
 10
1567.914436354585
 20
-379.4665028409957
 30
0.0
 11
1567.52635386113
 21
-379.7899049188747
 31
0.0
  0
LINE
  5
3ED
330
2AD
100
AcDbEntity
  8
Fills_ Pattern_Pen_No__153
  6
Continuous
100
AcDbLine
 10
1559.311941083004
 20
-507.5398419608011
 30
0.0
 11
1559.570662745307
 21
-507.7338832075285
 31
0.0
  0
LINE
  5
3EE
330
2AD
100
AcDbEntity
  8
Fills_ Pattern_Pen_No__153
  6
Continuous
100
AcDbLine
 10
1509.311941083004
 20
-457.5398419608011
 30
0.0
 11
1509.570662745307
 21
-457.7338832075285
 31
0.0
  0
LINE
  5
3EF
330
2AD
100
AcDbEntity
  8
Fills_ Pattern_Pen_No__153
  6
Continuous
100
AcDbLine
 10
1559.311941083004
 20
-457.5398419608011
 30
0.0
 11
1559.570662745307
 21
-457.7338832075285
 31
0.0
  0
LINE
  5
3F0
330
2AD
100
AcDbEntity
  8
Fills_ Pattern_Pen_No__153
  6
Continuous
100
AcDbLine
 10
1509.311941083004
 20
-407.5398419608012
 30
0.0
 11
1509.570662745307
 21
-407.7338832075285
 31
0.0
  0
LINE
  5
3F1
330
2AD
100
AcDbEntity
  8
Fills_ Pattern_Pen_No__153
  6
Continuous
100
AcDbLine
 10
1559.311941083004
 20
-407.5398419608012
 30
0.0
 11
1559.570662745307
 21
-407.7338832075285
 31
0.0
  0
LINE
  5
3F2
330
2AD
100
AcDbEntity
  8
Fills_ Pattern_Pen_No__153
  6
Continuous
100
AcDbLine
 10
1459.311941083004
 20
-357.5398419608012
 30
0.0
 11
1459.570662745307
 21
-357.7338832075286
 31
0.0
  0
LINE
  5
3F3
330
2AD
100
AcDbEntity
  8
Fills_ Pattern_Pen_No__153
  6
Continuous
100
AcDbLine
 10
1509.311941083004
 20
-357.5398419608012
 30
0.0
 11
1509.570662745307
 21
-357.7338832075286
 31
0.0
  0
LINE
  5
3F4
330
2AD
100
AcDbEntity
  8
Fills_ Pattern_Pen_No__153
  6
Continuous
100
AcDbLine
 10
1559.311941083004
 20
-357.5398419608012
 30
0.0
 11
1559.570662745307
 21
-357.7338832075286
 31
0.0
  0
LINE
  5
3F5
330
2AD
100
AcDbEntity
  8
Fills_ Pattern_Pen_No__153
  6
Continuous
100
AcDbLine
 10
1548.445631266271
 20
-492.1438642938514
 30
0.0
 11
1548.639672512998
 21
-492.4672663717304
 31
0.0
  0
LINE
  5
3F6
330
2AD
100
AcDbEntity
  8
Fills_ Pattern_Pen_No__153
  6
Continuous
100
AcDbLine
 10
1498.44563126627
 20
-442.1438642938514
 30
0.0
 11
1498.639672512998
 21
-442.4672663717304
 31
0.0
  0
LINE
  5
3F7
330
2AD
100
AcDbEntity
  8
Fills_ Pattern_Pen_No__153
  6
Continuous
100
AcDbLine
 10
1548.445631266271
 20
-442.1438642938514
 30
0.0
 11
1548.639672512998
 21
-442.4672663717304
 31
0.0
  0
LINE
  5
3F8
330
2AD
100
AcDbEntity
  8
Fills_ Pattern_Pen_No__153
  6
Continuous
100
AcDbLine
 10
1498.44563126627
 20
-392.1438642938515
 30
0.0
 11
1498.639672512998
 21
-392.4672663717305
 31
0.0
  0
LINE
  5
3F9
330
2AD
100
AcDbEntity
  8
Fills_ Pattern_Pen_No__153
  6
Continuous
100
AcDbLine
 10
1548.445631266271
 20
-392.1438642938515
 30
0.0
 11
1548.639672512998
 21
-392.4672663717305
 31
0.0
  0
LINE
  5
3FA
330
2AD
100
AcDbEntity
  8
Fills_ Pattern_Pen_No__153
  6
Continuous
100
AcDbLine
 10
1533.116372774807
 20
-496.8655346308844
 30
0.0
 11
1533.504455268262
 21
-496.4774521374297
 31
0.0
  0
LINE
  5
3FB
330
2AD
100
AcDbEntity
  8
Fills_ Pattern_Pen_No__153
  6
Continuous
100
AcDbLine
 10
1533.116372774807
 20
-446.8655346308844
 30
0.0
 11
1533.504455268262
 21
-446.4774521374297
 31
0.0
  0
LINE
  5
3FC
330
2AD
100
AcDbEntity
  8
Fills_ Pattern_Pen_No__153
  6
Continuous
100
AcDbLine
 10
1483.116372774807
 20
-396.8655346308846
 30
0.0
 11
1483.504455268262
 21
-396.4774521374297
 31
0.0
  0
LINE
  5
3FD
330
2AD
100
AcDbEntity
  8
Fills_ Pattern_Pen_No__153
  6
Continuous
100
AcDbLine
 10
1533.116372774807
 20
-396.8655346308846
 30
0.0
 11
1533.504455268262
 21
-396.4774521374297
 31
0.0
  0
LINE
  5
3FE
330
2AD
100
AcDbEntity
  8
Fills_ Pattern_Pen_No__153
  6
Continuous
100
AcDbLine
 10
1556.726763219883
 20
-505.5327103180409
 30
0.0
 11
1557.244206544489
 21
-505.7914319803441
 31
0.0
  0
LINE
  5
3FF
330
2AD
100
AcDbEntity
  8
Fills_ Pattern_Pen_No__153
  6
Continuous
100
AcDbLine
 10
1506.726763219883
 20
-455.5327103180409
 30
0.0
 11
1507.244206544489
 21
-455.7914319803442
 31
0.0
  0
LINE
  5
400
330
2AD
100
AcDbEntity
  8
Fills_ Pattern_Pen_No__153
  6
Continuous
100
AcDbLine
 10
1556.726763219883
 20
-455.5327103180409
 30
0.0
 11
1557.244206544489
 21
-455.7914319803442
 31
0.0
  0
LINE
  5
401
330
2AD
100
AcDbEntity
  8
Fills_ Pattern_Pen_No__153
  6
Continuous
100
AcDbLine
 10
1506.726763219883
 20
-405.5327103180409
 30
0.0
 11
1507.244206544489
 21
-405.7914319803442
 31
0.0
  0
LINE
  5
402
330
2AD
100
AcDbEntity
  8
Fills_ Pattern_Pen_No__153
  6
Continuous
100
AcDbLine
 10
1556.726763219883
 20
-405.5327103180409
 30
0.0
 11
1557.244206544489
 21
-405.7914319803442
 31
0.0
  0
LINE
  5
403
330
2AD
100
AcDbEntity
  8
Fills_ Pattern_Pen_No__153
  6
Continuous
100
AcDbLine
 10
1503.428062025517
 20
-473.7079070948393
 30
0.0
 11
1503.557422856669
 21
-473.2551441858086
 31
0.0
  0
LINE
  5
404
330
2AD
100
AcDbEntity
  8
Fills_ Pattern_Pen_No__153
  6
Continuous
100
AcDbLine
 10
1553.428062025517
 20
-473.7079070948393
 30
0.0
 11
1553.557422856669
 21
-473.2551441858086
 31
0.0
  0
LINE
  5
405
330
2AD
100
AcDbEntity
  8
Fills_ Pattern_Pen_No__153
  6
Continuous
100
AcDbLine
 10
1503.428062025517
 20
-423.7079070948393
 30
0.0
 11
1503.557422856669
 21
-423.2551441858086
 31
0.0
  0
LINE
  5
406
330
2AD
100
AcDbEntity
  8
Fills_ Pattern_Pen_No__153
  6
Continuous
100
AcDbLine
 10
1553.428062025517
 20
-423.7079070948393
 30
0.0
 11
1553.557422856669
 21
-423.2551441858086
 31
0.0
  0
LINE
  5
407
330
2AD
100
AcDbEntity
  8
Fills_ Pattern_Pen_No__153
  6
Continuous
100
AcDbLine
 10
1453.428062025517
 20
-373.7079070948393
 30
0.0
 11
1453.557422856668
 21
-373.2551441858087
 31
0.0
  0
LINE
  5
408
330
2AD
100
AcDbEntity
  8
Fills_ Pattern_Pen_No__153
  6
Continuous
100
AcDbLine
 10
1503.428062025517
 20
-373.7079070948393
 30
0.0
 11
1503.557422856669
 21
-373.2551441858087
 31
0.0
  0
LINE
  5
409
330
2AD
100
AcDbEntity
  8
Fills_ Pattern_Pen_No__153
  6
Continuous
100
AcDbLine
 10
1553.428062025517
 20
-373.7079070948393
 30
0.0
 11
1553.557422856669
 21
-373.2551441858087
 31
0.0
  0
LINE
  5
40A
330
2AD
100
AcDbEntity
  8
Fills_ Pattern_Pen_No__153
  6
Continuous
100
AcDbLine
 10
1552.716577454184
 20
-488.5844026772721
 30
0.0
 11
1553.104659947638
 21
-488.7784439239994
 31
0.0
  0
LINE
  5
40B
330
2AD
100
AcDbEntity
  8
Fills_ Pattern_Pen_No__153
  6
Continuous
100
AcDbLine
 10
1502.716577454183
 20
-438.5844026772721
 30
0.0
 11
1503.104659947638
 21
-438.7784439239995
 31
0.0
  0
LINE
  5
40C
330
2AD
100
AcDbEntity
  8
Fills_ Pattern_Pen_No__153
  6
Continuous
100
AcDbLine
 10
1552.716577454184
 20
-438.5844026772721
 30
0.0
 11
1553.104659947638
 21
-438.7784439239995
 31
0.0
  0
LINE
  5
40D
330
2AD
100
AcDbEntity
  8
Fills_ Pattern_Pen_No__153
  6
Continuous
100
AcDbLine
 10
1502.716577454183
 20
-388.5844026772721
 30
0.0
 11
1503.104659947638
 21
-388.7784439239995
 31
0.0
  0
LINE
  5
40E
330
2AD
100
AcDbEntity
  8
Fills_ Pattern_Pen_No__153
  6
Continuous
100
AcDbLine
 10
1552.716577454184
 20
-388.5844026772721
 30
0.0
 11
1553.104659947638
 21
-388.7784439239995
 31
0.0
  0
LINE
  5
40F
330
2AD
100
AcDbEntity
  8
Fills_ Pattern_Pen_No__153
  6
Continuous
100
AcDbLine
 10
1550.064680415576
 20
-481.8596782172999
 30
0.0
 11
1550.323402077879
 21
-482.0537194640273
 31
0.0
  0
LINE
  5
410
330
2AD
100
AcDbEntity
  8
Fills_ Pattern_Pen_No__153
  6
Continuous
100
AcDbLine
 10
1500.064680415576
 20
-431.8596782172998
 30
0.0
 11
1500.323402077879
 21
-432.0537194640272
 31
0.0
  0
LINE
  5
411
330
2AD
100
AcDbEntity
  8
Fills_ Pattern_Pen_No__153
  6
Continuous
100
AcDbLine
 10
1550.064680415576
 20
-431.8596782172998
 30
0.0
 11
1550.323402077879
 21
-432.0537194640272
 31
0.0
  0
LINE
  5
412
330
2AD
100
AcDbEntity
  8
Fills_ Pattern_Pen_No__153
  6
Continuous
100
AcDbLine
 10
1500.064680415576
 20
-381.8596782172999
 30
0.0
 11
1500.323402077879
 21
-382.0537194640273
 31
0.0
  0
LINE
  5
413
330
2AD
100
AcDbEntity
  8
Fills_ Pattern_Pen_No__153
  6
Continuous
100
AcDbLine
 10
1550.064680415576
 20
-381.8596782172999
 30
0.0
 11
1550.323402077879
 21
-382.0537194640273
 31
0.0
  0
LINE
  5
414
330
2AD
100
AcDbEntity
  8
Fills_ Pattern_Pen_No__153
  6
Continuous
100
AcDbLine
 10
1550.323402077879
 20
-502.0420066368584
 30
0.0
 11
1550.0
 21
-502.1066870524343
 31
0.0
  0
LINE
  5
415
330
2AD
100
AcDbEntity
  8
Fills_ Pattern_Pen_No__153
  6
Continuous
100
AcDbLine
 10
1500.323402077879
 20
-452.0420066368584
 30
0.0
 11
1500.0
 21
-452.1066870524342
 31
0.0
  0
LINE
  5
416
330
2AD
100
AcDbEntity
  8
Fills_ Pattern_Pen_No__153
  6
Continuous
100
AcDbLine
 10
1550.323402077879
 20
-452.0420066368584
 30
0.0
 11
1550.0
 21
-452.1066870524342
 31
0.0
  0
LINE
  5
417
330
2AD
100
AcDbEntity
  8
Fills_ Pattern_Pen_No__153
  6
Continuous
100
AcDbLine
 10
1500.323402077879
 20
-402.0420066368584
 30
0.0
 11
1500.0
 21
-402.1066870524343
 31
0.0
  0
LINE
  5
418
330
2AD
100
AcDbEntity
  8
Fills_ Pattern_Pen_No__153
  6
Continuous
100
AcDbLine
 10
1550.323402077879
 20
-402.0420066368584
 30
0.0
 11
1550.0
 21
-402.1066870524343
 31
0.0
  0
LINE
  5
419
330
2AD
100
AcDbEntity
  8
Fills_ Pattern_Pen_No__153
  6
Continuous
100
AcDbLine
 10
1519.53348550389
 20
-474.1627087637803
 30
0.0
 11
1519.856887581769
 21
-474.2273891793561
 31
0.0
  0
LINE
  5
41A
330
2AD
100
AcDbEntity
  8
Fills_ Pattern_Pen_No__153
  6
Continuous
100
AcDbLine
 10
1569.53348550389
 20
-474.1627087637803
 30
0.0
 11
1569.856887581769
 21
-474.2273891793561
 31
0.0
  0
LINE
  5
41B
330
2AD
100
AcDbEntity
  8
Fills_ Pattern_Pen_No__153
  6
Continuous
100
AcDbLine
 10
1519.53348550389
 20
-424.1627087637803
 30
0.0
 11
1519.856887581769
 21
-424.2273891793561
 31
0.0
  0
LINE
  5
41C
330
2AD
100
AcDbEntity
  8
Fills_ Pattern_Pen_No__153
  6
Continuous
100
AcDbLine
 10
1569.53348550389
 20
-424.1627087637803
 30
0.0
 11
1569.856887581769
 21
-424.2273891793561
 31
0.0
  0
LINE
  5
41D
330
2AD
100
AcDbEntity
  8
Fills_ Pattern_Pen_No__153
  6
Continuous
100
AcDbLine
 10
1469.53348550389
 20
-374.1627087637804
 30
0.0
 11
1469.856887581769
 21
-374.2273891793562
 31
0.0
  0
LINE
  5
41E
330
2AD
100
AcDbEntity
  8
Fills_ Pattern_Pen_No__153
  6
Continuous
100
AcDbLine
 10
1519.53348550389
 20
-374.1627087637804
 30
0.0
 11
1519.856887581769
 21
-374.2273891793562
 31
0.0
  0
LINE
  5
41F
330
2AD
100
AcDbEntity
  8
Fills_ Pattern_Pen_No__153
  6
Continuous
100
AcDbLine
 10
1569.53348550389
 20
-374.1627087637804
 30
0.0
 11
1569.856887581769
 21
-374.2273891793562
 31
0.0
  0
LINE
  5
420
330
2AD
100
AcDbEntity
  8
Fills_ Pattern_Pen_No__153
  6
Continuous
100
AcDbLine
 10
1575.872166230318
 20
-516.4010588946849
 30
0.0
 11
1576.130887892621
 21
-516.9831826348671
 31
0.0
  0
LINE
  5
421
330
2AD
100
AcDbEntity
  8
Fills_ Pattern_Pen_No__153
  6
Continuous
100
AcDbLine
 10
1525.872166230318
 20
-466.4010588946849
 30
0.0
 11
1526.130887892621
 21
-466.9831826348671
 31
0.0
  0
LINE
  5
422
330
2AD
100
AcDbEntity
  8
Fills_ Pattern_Pen_No__153
  6
Continuous
100
AcDbLine
 10
1575.872166230318
 20
-466.4010588946849
 30
0.0
 11
1576.130887892621
 21
-466.9831826348671
 31
0.0
  0
LINE
  5
423
330
2AD
100
AcDbEntity
  8
Fills_ Pattern_Pen_No__153
  6
Continuous
100
AcDbLine
 10
1475.872166230318
 20
-416.4010588946849
 30
0.0
 11
1476.130887892621
 21
-416.9831826348671
 31
0.0
  0
LINE
  5
424
330
2AD
100
AcDbEntity
  8
Fills_ Pattern_Pen_No__153
  6
Continuous
100
AcDbLine
 10
1525.872166230318
 20
-416.4010588946849
 30
0.0
 11
1526.130887892621
 21
-416.9831826348671
 31
0.0
  0
LINE
  5
425
330
2AD
100
AcDbEntity
  8
Fills_ Pattern_Pen_No__153
  6
Continuous
100
AcDbLine
 10
1575.872166230318
 20
-416.4010588946849
 30
0.0
 11
1576.130887892621
 21
-416.9831826348671
 31
0.0
  0
LINE
  5
426
330
2AD
100
AcDbEntity
  8
Fills_ Pattern_Pen_No__153
  6
Continuous
100
AcDbLine
 10
1475.872166230318
 20
-366.401058894685
 30
0.0
 11
1476.130887892621
 21
-366.9831826348672
 31
0.0
  0
LINE
  5
427
330
2AD
100
AcDbEntity
  8
Fills_ Pattern_Pen_No__153
  6
Continuous
100
AcDbLine
 10
1525.872166230318
 20
-366.401058894685
 30
0.0
 11
1526.130887892621
 21
-366.9831826348672
 31
0.0
  0
LINE
  5
428
330
2AD
100
AcDbEntity
  8
Fills_ Pattern_Pen_No__153
  6
Continuous
100
AcDbLine
 10
1575.872166230318
 20
-366.401058894685
 30
0.0
 11
1576.130887892621
 21
-366.9831826348672
 31
0.0
  0
LINE
  5
429
330
2AD
100
AcDbEntity
  8
Fills_ Pattern_Pen_No__153
  6
Continuous
100
AcDbLine
 10
1558.542882603089
 20
-514.2444282977459
 30
0.0
 11
1557.943901366629
 21
-512.983730298217
 31
0.0
  0
LINE
  5
42A
330
2AD
100
AcDbEntity
  8
Fills_ Pattern_Pen_No__153
  6
Continuous
100
AcDbLine
 10
1508.542882603089
 20
-464.2444282977458
 30
0.0
 11
1507.943901366628
 21
-462.983730298217
 31
0.0
  0
LINE
  5
42B
330
2AD
100
AcDbEntity
  8
Fills_ Pattern_Pen_No__153
  6
Continuous
100
AcDbLine
 10
1558.542882603089
 20
-464.2444282977458
 30
0.0
 11
1557.943901366629
 21
-462.983730298217
 31
0.0
  0
LINE
  5
42C
330
2AD
100
AcDbEntity
  8
Fills_ Pattern_Pen_No__153
  6
Continuous
100
AcDbLine
 10
1508.542882603089
 20
-414.2444282977458
 30
0.0
 11
1507.943901366628
 21
-412.983730298217
 31
0.0
  0
LINE
  5
42D
330
2AD
100
AcDbEntity
  8
Fills_ Pattern_Pen_No__153
  6
Continuous
100
AcDbLine
 10
1558.542882603089
 20
-414.2444282977458
 30
0.0
 11
1557.943901366629
 21
-412.983730298217
 31
0.0
  0
LINE
  5
42E
330
2AD
100
AcDbEntity
  8
Fills_ Pattern_Pen_No__153
  6
Continuous
100
AcDbLine
 10
1458.542882603089
 20
-364.2444282977459
 30
0.0
 11
1457.943901366628
 21
-362.983730298217
 31
0.0
  0
LINE
  5
42F
330
2AD
100
AcDbEntity
  8
Fills_ Pattern_Pen_No__153
  6
Continuous
100
AcDbLine
 10
1508.542882603089
 20
-364.2444282977459
 30
0.0
 11
1507.943901366628
 21
-362.983730298217
 31
0.0
  0
LINE
  5
430
330
2AD
100
AcDbEntity
  8
Fills_ Pattern_Pen_No__153
  6
Continuous
100
AcDbLine
 10
1558.542882603089
 20
-364.2444282977459
 30
0.0
 11
1557.943901366629
 21
-362.983730298217
 31
0.0
  0
LINE
  5
431
330
2AD
100
AcDbEntity
  8
Fills_ Pattern_Pen_No__153
  6
Continuous
100
AcDbLine
 10
1499.849073965844
 20
-474.5368297067351
 30
0.0
 11
1500.222006598328
 21
-474.4357326685316
 31
0.0
  0
LINE
  5
432
330
2AD
100
AcDbEntity
  8
Fills_ Pattern_Pen_No__153
  6
Continuous
100
AcDbLine
 10
1549.849073965844
 20
-474.5368297067351
 30
0.0
 11
1550.222006598328
 21
-474.4357326685316
 31
0.0
  0
LINE
  5
433
330
2AD
100
AcDbEntity
  8
Fills_ Pattern_Pen_No__153
  6
Continuous
100
AcDbLine
 10
1499.849073965844
 20
-424.5368297067351
 30
0.0
 11
1500.222006598328
 21
-424.4357326685316
 31
0.0
  0
LINE
  5
434
330
2AD
100
AcDbEntity
  8
Fills_ Pattern_Pen_No__153
  6
Continuous
100
AcDbLine
 10
1549.849073965844
 20
-424.5368297067351
 30
0.0
 11
1550.222006598328
 21
-424.4357326685316
 31
0.0
  0
LINE
  5
435
330
2AD
100
AcDbEntity
  8
Fills_ Pattern_Pen_No__153
  6
Continuous
100
AcDbLine
 10
1499.849073965844
 20
-374.5368297067352
 30
0.0
 11
1500.222006598328
 21
-374.4357326685317
 31
0.0
  0
LINE
  5
436
330
2AD
100
AcDbEntity
  8
Fills_ Pattern_Pen_No__153
  6
Continuous
100
AcDbLine
 10
1549.849073965844
 20
-374.5368297067352
 30
0.0
 11
1550.222006598328
 21
-374.4357326685317
 31
0.0
  0
LINE
  5
437
330
2AD
100
AcDbEntity
  8
Fills_ Pattern_Pen_No__153
  6
Continuous
100
AcDbLine
 10
1507.089590049328
 20
-472.8165267815565
 30
0.0
 11
1507.27714997778
 21
-473.0878084310915
 31
0.0
  0
LINE
  5
438
330
2AD
100
AcDbEntity
  8
Fills_ Pattern_Pen_No__153
  6
Continuous
100
AcDbLine
 10
1557.089590049328
 20
-472.8165267815565
 30
0.0
 11
1557.27714997778
 21
-473.0878084310915
 31
0.0
  0
LINE
  5
439
330
2AD
100
AcDbEntity
  8
Fills_ Pattern_Pen_No__153
  6
Continuous
100
AcDbLine
 10
1507.089590049328
 20
-422.8165267815565
 30
0.0
 11
1507.27714997778
 21
-423.0878084310915
 31
0.0
  0
LINE
  5
43A
330
2AD
100
AcDbEntity
  8
Fills_ Pattern_Pen_No__153
  6
Continuous
100
AcDbLine
 10
1557.089590049328
 20
-422.8165267815565
 30
0.0
 11
1557.27714997778
 21
-423.0878084310915
 31
0.0
  0
LINE
  5
43B
330
2AD
100
AcDbEntity
  8
Fills_ Pattern_Pen_No__153
  6
Continuous
100
AcDbLine
 10
1457.089590049327
 20
-372.8165267815566
 30
0.0
 11
1457.27714997778
 21
-373.0878084310915
 31
0.0
  0
LINE
  5
43C
330
2AD
100
AcDbEntity
  8
Fills_ Pattern_Pen_No__153
  6
Continuous
100
AcDbLine
 10
1507.089590049328
 20
-372.8165267815566
 30
0.0
 11
1507.27714997778
 21
-373.0878084310915
 31
0.0
  0
LINE
  5
43D
330
2AD
100
AcDbEntity
  8
Fills_ Pattern_Pen_No__153
  6
Continuous
100
AcDbLine
 10
1557.089590049328
 20
-372.8165267815566
 30
0.0
 11
1557.27714997778
 21
-373.0878084310915
 31
0.0
  0
LINE
  5
43E
330
2AD
100
AcDbEntity
  8
Fills_ Pattern_Pen_No__153
  6
Continuous
100
AcDbLine
 10
1517.041581007128
 20
-471.6418106380261
 30
0.0
 11
1516.822992172289
 21
-472.2401615958361
 31
0.0
  0
LINE
  5
43F
330
2AD
100
AcDbEntity
  8
Fills_ Pattern_Pen_No__153
  6
Continuous
100
AcDbLine
 10
1567.041581007128
 20
-471.6418106380261
 30
0.0
 11
1566.822992172289
 21
-472.2401615958361
 31
0.0
  0
LINE
  5
440
330
2AD
100
AcDbEntity
  8
Fills_ Pattern_Pen_No__153
  6
Continuous
100
AcDbLine
 10
1517.041581007128
 20
-421.6418106380261
 30
0.0
 11
1516.822992172289
 21
-422.2401615958362
 31
0.0
  0
LINE
  5
441
330
2AD
100
AcDbEntity
  8
Fills_ Pattern_Pen_No__153
  6
Continuous
100
AcDbLine
 10
1567.041581007128
 20
-421.6418106380261
 30
0.0
 11
1566.822992172289
 21
-422.2401615958362
 31
0.0
  0
LINE
  5
442
330
2AD
100
AcDbEntity
  8
Fills_ Pattern_Pen_No__153
  6
Continuous
100
AcDbLine
 10
1467.041581007128
 20
-371.6418106380261
 30
0.0
 11
1466.822992172289
 21
-372.2401615958362
 31
0.0
  0
LINE
  5
443
330
2AD
100
AcDbEntity
  8
Fills_ Pattern_Pen_No__153
  6
Continuous
100
AcDbLine
 10
1517.041581007128
 20
-371.6418106380261
 30
0.0
 11
1516.822992172289
 21
-372.2401615958362
 31
0.0
  0
LINE
  5
444
330
2AD
100
AcDbEntity
  8
Fills_ Pattern_Pen_No__153
  6
Continuous
100
AcDbLine
 10
1567.041581007128
 20
-371.6418106380261
 30
0.0
 11
1566.822992172289
 21
-372.2401615958362
 31
0.0
  0
LINE
  5
445
330
2AD
100
AcDbEntity
  8
Fills_ Pattern_Pen_No__153
  6
Continuous
100
AcDbLine
 10
1562.3970016562
 20
-514.5258870541954
 30
0.0
 11
1563.408302734566
 21
-514.0487870668975
 31
0.0
  0
LINE
  5
446
330
2AD
100
AcDbEntity
  8
Fills_ Pattern_Pen_No__153
  6
Continuous
100
AcDbLine
 10
1512.3970016562
 20
-464.5258870541954
 30
0.0
 11
1513.408302734566
 21
-464.0487870668975
 31
0.0
  0
LINE
  5
447
330
2AD
100
AcDbEntity
  8
Fills_ Pattern_Pen_No__153
  6
Continuous
100
AcDbLine
 10
1562.3970016562
 20
-464.5258870541954
 30
0.0
 11
1563.408302734566
 21
-464.0487870668975
 31
0.0
  0
LINE
  5
448
330
2AD
100
AcDbEntity
  8
Fills_ Pattern_Pen_No__153
  6
Continuous
100
AcDbLine
 10
1512.3970016562
 20
-414.5258870541954
 30
0.0
 11
1513.408302734566
 21
-414.0487870668975
 31
0.0
  0
LINE
  5
449
330
2AD
100
AcDbEntity
  8
Fills_ Pattern_Pen_No__153
  6
Continuous
100
AcDbLine
 10
1562.3970016562
 20
-414.5258870541954
 30
0.0
 11
1563.408302734566
 21
-414.0487870668975
 31
0.0
  0
LINE
  5
44A
330
2AD
100
AcDbEntity
  8
Fills_ Pattern_Pen_No__153
  6
Continuous
100
AcDbLine
 10
1462.3970016562
 20
-364.5258870541955
 30
0.0
 11
1463.408302734566
 21
-364.0487870668975
 31
0.0
  0
LINE
  5
44B
330
2AD
100
AcDbEntity
  8
Fills_ Pattern_Pen_No__153
  6
Continuous
100
AcDbLine
 10
1512.3970016562
 20
-364.5258870541955
 30
0.0
 11
1513.408302734566
 21
-364.0487870668975
 31
0.0
  0
LINE
  5
44C
330
2AD
100
AcDbEntity
  8
Fills_ Pattern_Pen_No__153
  6
Continuous
100
AcDbLine
 10
1562.3970016562
 20
-364.5258870541955
 30
0.0
 11
1563.408302734566
 21
-364.0487870668975
 31
0.0
  0
LINE
  5
44D
330
2AD
100
AcDbEntity
  8
Fills_ Pattern_Pen_No__153
  6
Continuous
100
AcDbLine
 10
1563.408302734566
 20
-514.0487870668975
 30
0.0
 11
1564.661595339896
 21
-515.210931119113
 31
0.0
  0
LINE
  5
44E
330
2AD
100
AcDbEntity
  8
Fills_ Pattern_Pen_No__153
  6
Continuous
100
AcDbLine
 10
1513.408302734566
 20
-464.0487870668975
 30
0.0
 11
1514.661595339896
 21
-465.210931119113
 31
0.0
  0
LINE
  5
44F
330
2AD
100
AcDbEntity
  8
Fills_ Pattern_Pen_No__153
  6
Continuous
100
AcDbLine
 10
1563.408302734566
 20
-464.0487870668975
 30
0.0
 11
1564.661595339896
 21
-465.210931119113
 31
0.0
  0
LINE
  5
450
330
2AD
100
AcDbEntity
  8
Fills_ Pattern_Pen_No__153
  6
Continuous
100
AcDbLine
 10
1513.408302734566
 20
-414.0487870668975
 30
0.0
 11
1514.661595339896
 21
-415.210931119113
 31
0.0
  0
LINE
  5
451
330
2AD
100
AcDbEntity
  8
Fills_ Pattern_Pen_No__153
  6
Continuous
100
AcDbLine
 10
1563.408302734566
 20
-414.0487870668975
 30
0.0
 11
1564.661595339896
 21
-415.210931119113
 31
0.0
  0
LINE
  5
452
330
2AD
100
AcDbEntity
  8
Fills_ Pattern_Pen_No__153
  6
Continuous
100
AcDbLine
 10
1463.408302734566
 20
-364.0487870668975
 30
0.0
 11
1464.661595339896
 21
-365.210931119113
 31
0.0
  0
LINE
  5
453
330
2AD
100
AcDbEntity
  8
Fills_ Pattern_Pen_No__153
  6
Continuous
100
AcDbLine
 10
1513.408302734566
 20
-364.0487870668975
 30
0.0
 11
1514.661595339896
 21
-365.210931119113
 31
0.0
  0
LINE
  5
454
330
2AD
100
AcDbEntity
  8
Fills_ Pattern_Pen_No__153
  6
Continuous
100
AcDbLine
 10
1563.408302734566
 20
-364.0487870668975
 30
0.0
 11
1564.661595339896
 21
-365.210931119113
 31
0.0
  0
LINE
  5
455
330
2AD
100
AcDbEntity
  8
Fills_ Pattern_Pen_No__153
  6
Continuous
100
AcDbLine
 10
1563.066495660385
 20
-516.3047137564923
 30
0.0
 11
1562.3970016562
 21
-514.5258870541954
 31
0.0
  0
LINE
  5
456
330
2AD
100
AcDbEntity
  8
Fills_ Pattern_Pen_No__153
  6
Continuous
100
AcDbLine
 10
1513.066495660385
 20
-466.3047137564922
 30
0.0
 11
1512.3970016562
 21
-464.5258870541954
 31
0.0
  0
LINE
  5
457
330
2AD
100
AcDbEntity
  8
Fills_ Pattern_Pen_No__153
  6
Continuous
100
AcDbLine
 10
1563.066495660385
 20
-466.3047137564922
 30
0.0
 11
1562.3970016562
 21
-464.5258870541954
 31
0.0
  0
LINE
  5
458
330
2AD
100
AcDbEntity
  8
Fills_ Pattern_Pen_No__153
  6
Continuous
100
AcDbLine
 10
1513.066495660385
 20
-416.3047137564923
 30
0.0
 11
1512.3970016562
 21
-414.5258870541954
 31
0.0
  0
LINE
  5
459
330
2AD
100
AcDbEntity
  8
Fills_ Pattern_Pen_No__153
  6
Continuous
100
AcDbLine
 10
1563.066495660385
 20
-416.3047137564923
 30
0.0
 11
1562.3970016562
 21
-414.5258870541954
 31
0.0
  0
LINE
  5
45A
330
2AD
100
AcDbEntity
  8
Fills_ Pattern_Pen_No__153
  6
Continuous
100
AcDbLine
 10
1463.066495660385
 20
-366.3047137564924
 30
0.0
 11
1462.3970016562
 21
-364.5258870541955
 31
0.0
  0
LINE
  5
45B
330
2AD
100
AcDbEntity
  8
Fills_ Pattern_Pen_No__153
  6
Continuous
100
AcDbLine
 10
1513.066495660385
 20
-366.3047137564924
 30
0.0
 11
1512.3970016562
 21
-364.5258870541955
 31
0.0
  0
LINE
  5
45C
330
2AD
100
AcDbEntity
  8
Fills_ Pattern_Pen_No__153
  6
Continuous
100
AcDbLine
 10
1563.066495660385
 20
-366.3047137564924
 30
0.0
 11
1562.3970016562
 21
-364.5258870541955
 31
0.0
  0
LINE
  5
45D
330
2AD
100
AcDbEntity
  8
Fills_ Pattern_Pen_No__153
  6
Continuous
100
AcDbLine
 10
1564.661595339896
 20
-515.210931119113
 30
0.0
 11
1563.066495660385
 21
-516.3047137564923
 31
0.0
  0
LINE
  5
45E
330
2AD
100
AcDbEntity
  8
Fills_ Pattern_Pen_No__153
  6
Continuous
100
AcDbLine
 10
1514.661595339896
 20
-465.210931119113
 30
0.0
 11
1513.066495660385
 21
-466.3047137564922
 31
0.0
  0
LINE
  5
45F
330
2AD
100
AcDbEntity
  8
Fills_ Pattern_Pen_No__153
  6
Continuous
100
AcDbLine
 10
1564.661595339896
 20
-465.210931119113
 30
0.0
 11
1563.066495660385
 21
-466.3047137564922
 31
0.0
  0
LINE
  5
460
330
2AD
100
AcDbEntity
  8
Fills_ Pattern_Pen_No__153
  6
Continuous
100
AcDbLine
 10
1514.661595339896
 20
-415.210931119113
 30
0.0
 11
1513.066495660385
 21
-416.3047137564923
 31
0.0
  0
LINE
  5
461
330
2AD
100
AcDbEntity
  8
Fills_ Pattern_Pen_No__153
  6
Continuous
100
AcDbLine
 10
1564.661595339896
 20
-415.210931119113
 30
0.0
 11
1563.066495660385
 21
-416.3047137564923
 31
0.0
  0
LINE
  5
462
330
2AD
100
AcDbEntity
  8
Fills_ Pattern_Pen_No__153
  6
Continuous
100
AcDbLine
 10
1464.661595339896
 20
-365.210931119113
 30
0.0
 11
1463.066495660385
 21
-366.3047137564924
 31
0.0
  0
LINE
  5
463
330
2AD
100
AcDbEntity
  8
Fills_ Pattern_Pen_No__153
  6
Continuous
100
AcDbLine
 10
1514.661595339896
 20
-365.210931119113
 30
0.0
 11
1513.066495660385
 21
-366.3047137564924
 31
0.0
  0
LINE
  5
464
330
2AD
100
AcDbEntity
  8
Fills_ Pattern_Pen_No__153
  6
Continuous
100
AcDbLine
 10
1564.661595339896
 20
-365.210931119113
 30
0.0
 11
1563.066495660385
 21
-366.3047137564924
 31
0.0
  0
LINE
  5
465
330
2AD
100
AcDbEntity
  8
Fills_ Pattern_Pen_No__153
  6
Continuous
100
AcDbLine
 10
1557.056831906814
 20
-514.8989857985163
 30
0.0
 11
1558.542882603089
 21
-514.2444282977459
 31
0.0
  0
LINE
  5
466
330
2AD
100
AcDbEntity
  8
Fills_ Pattern_Pen_No__153
  6
Continuous
100
AcDbLine
 10
1507.056831906814
 20
-464.8989857985163
 30
0.0
 11
1508.542882603089
 21
-464.2444282977458
 31
0.0
  0
LINE
  5
467
330
2AD
100
AcDbEntity
  8
Fills_ Pattern_Pen_No__153
  6
Continuous
100
AcDbLine
 10
1557.056831906814
 20
-464.8989857985163
 30
0.0
 11
1558.542882603089
 21
-464.2444282977458
 31
0.0
  0
LINE
  5
468
330
2AD
100
AcDbEntity
  8
Fills_ Pattern_Pen_No__153
  6
Continuous
100
AcDbLine
 10
1507.056831906814
 20
-414.8989857985162
 30
0.0
 11
1508.542882603089
 21
-414.2444282977458
 31
0.0
  0
LINE
  5
469
330
2AD
100
AcDbEntity
  8
Fills_ Pattern_Pen_No__153
  6
Continuous
100
AcDbLine
 10
1557.056831906814
 20
-414.8989857985162
 30
0.0
 11
1558.542882603089
 21
-414.2444282977458
 31
0.0
  0
LINE
  5
46A
330
2AD
100
AcDbEntity
  8
Fills_ Pattern_Pen_No__153
  6
Continuous
100
AcDbLine
 10
1457.056831906814
 20
-364.8989857985163
 30
0.0
 11
1458.542882603089
 21
-364.2444282977459
 31
0.0
  0
LINE
  5
46B
330
2AD
100
AcDbEntity
  8
Fills_ Pattern_Pen_No__153
  6
Continuous
100
AcDbLine
 10
1507.056831906814
 20
-364.8989857985163
 30
0.0
 11
1508.542882603089
 21
-364.2444282977459
 31
0.0
  0
LINE
  5
46C
330
2AD
100
AcDbEntity
  8
Fills_ Pattern_Pen_No__153
  6
Continuous
100
AcDbLine
 10
1557.056831906814
 20
-364.8989857985163
 30
0.0
 11
1558.542882603089
 21
-364.2444282977459
 31
0.0
  0
LINE
  5
46D
330
2AD
100
AcDbEntity
  8
Fills_ Pattern_Pen_No__153
  6
Continuous
100
AcDbLine
 10
1557.596848520265
 20
-491.7314610359762
 30
0.0
 11
1556.865875998222
 21
-493.1934060800631
 31
0.0
  0
LINE
  5
46E
330
2AD
100
AcDbEntity
  8
Fills_ Pattern_Pen_No__153
  6
Continuous
100
AcDbLine
 10
1507.596848520265
 20
-441.7314610359762
 30
0.0
 11
1506.865875998221
 21
-443.1934060800631
 31
0.0
  0
LINE
  5
46F
330
2AD
100
AcDbEntity
  8
Fills_ Pattern_Pen_No__153
  6
Continuous
100
AcDbLine
 10
1557.596848520265
 20
-441.7314610359762
 30
0.0
 11
1556.865875998222
 21
-443.1934060800631
 31
0.0
  0
LINE
  5
470
330
2AD
100
AcDbEntity
  8
Fills_ Pattern_Pen_No__153
  6
Continuous
100
AcDbLine
 10
1507.596848520265
 20
-391.7314610359762
 30
0.0
 11
1506.865875998221
 21
-393.1934060800631
 31
0.0
  0
LINE
  5
471
330
2AD
100
AcDbEntity
  8
Fills_ Pattern_Pen_No__153
  6
Continuous
100
AcDbLine
 10
1557.596848520265
 20
-391.7314610359762
 30
0.0
 11
1556.865875998222
 21
-393.1934060800631
 31
0.0
  0
LINE
  5
472
330
2AD
100
AcDbEntity
  8
Fills_ Pattern_Pen_No__153
  6
Continuous
100
AcDbLine
 10
1556.865875998222
 20
-493.1934060800631
 30
0.0
 11
1558.510564172819
 21
-492.8279198190413
 31
0.0
  0
LINE
  5
473
330
2AD
100
AcDbEntity
  8
Fills_ Pattern_Pen_No__153
  6
Continuous
100
AcDbLine
 10
1506.865875998221
 20
-443.1934060800631
 30
0.0
 11
1508.510564172819
 21
-442.8279198190414
 31
0.0
  0
LINE
  5
474
330
2AD
100
AcDbEntity
  8
Fills_ Pattern_Pen_No__153
  6
Continuous
100
AcDbLine
 10
1556.865875998222
 20
-443.1934060800631
 30
0.0
 11
1558.510564172819
 21
-442.8279198190414
 31
0.0
  0
LINE
  5
475
330
2AD
100
AcDbEntity
  8
Fills_ Pattern_Pen_No__153
  6
Continuous
100
AcDbLine
 10
1458.283698299975
 20
-392.8783344574512
 30
0.0
 11
1458.510564172819
 21
-392.8279198190414
 31
0.0
  0
LINE
  5
476
330
2AD
100
AcDbEntity
  8
Fills_ Pattern_Pen_No__153
  6
Continuous
100
AcDbLine
 10
1506.865875998221
 20
-393.1934060800631
 30
0.0
 11
1508.510564172819
 21
-392.8279198190414
 31
0.0
  0
LINE
  5
477
330
2AD
100
AcDbEntity
  8
Fills_ Pattern_Pen_No__153
  6
Continuous
100
AcDbLine
 10
1556.865875998222
 20
-393.1934060800631
 30
0.0
 11
1558.510564172819
 21
-392.8279198190414
 31
0.0
  0
LINE
  5
478
330
2AD
100
AcDbEntity
  8
Fills_ Pattern_Pen_No__153
  6
Continuous
100
AcDbLine
 10
1558.510564172819
 20
-492.8279198190413
 30
0.0
 11
1557.596848520265
 21
-491.7314610359762
 31
0.0
  0
LINE
  5
479
330
2AD
100
AcDbEntity
  8
Fills_ Pattern_Pen_No__153
  6
Continuous
100
AcDbLine
 10
1508.510564172819
 20
-442.8279198190414
 30
0.0
 11
1507.596848520265
 21
-441.7314610359762
 31
0.0
  0
LINE
  5
47A
330
2AD
100
AcDbEntity
  8
Fills_ Pattern_Pen_No__153
  6
Continuous
100
AcDbLine
 10
1558.510564172819
 20
-442.8279198190414
 30
0.0
 11
1557.596848520265
 21
-441.7314610359762
 31
0.0
  0
LINE
  5
47B
330
2AD
100
AcDbEntity
  8
Fills_ Pattern_Pen_No__153
  6
Continuous
100
AcDbLine
 10
1458.510564172819
 20
-392.8279198190414
 30
0.0
 11
1457.986844504156
 21
-392.1994562166461
 31
0.0
  0
LINE
  5
47C
330
2AD
100
AcDbEntity
  8
Fills_ Pattern_Pen_No__153
  6
Continuous
100
AcDbLine
 10
1508.510564172819
 20
-392.8279198190414
 30
0.0
 11
1507.596848520265
 21
-391.7314610359762
 31
0.0
  0
LINE
  5
47D
330
2AD
100
AcDbEntity
  8
Fills_ Pattern_Pen_No__153
  6
Continuous
100
AcDbLine
 10
1558.510564172819
 20
-392.8279198190414
 30
0.0
 11
1557.596848520265
 21
-391.7314610359762
 31
0.0
  0
LINE
  5
47E
330
2AD
100
AcDbEntity
  8
Fills_ Pattern_Pen_No__153
  6
Continuous
100
AcDbLine
 10
1520.786211790674
 20
-490.3115950022043
 30
0.0
 11
1521.005022644312
 21
-490.8586221362994
 31
0.0
  0
LINE
  5
47F
330
2AD
100
AcDbEntity
  8
Fills_ Pattern_Pen_No__153
  6
Continuous
100
AcDbLine
 10
1570.786211790674
 20
-490.3115950022043
 30
0.0
 11
1571.005022644313
 21
-490.8586221362994
 31
0.0
  0
LINE
  5
480
330
2AD
100
AcDbEntity
  8
Fills_ Pattern_Pen_No__153
  6
Continuous
100
AcDbLine
 10
1520.786211790674
 20
-440.3115950022043
 30
0.0
 11
1521.005022644312
 21
-440.8586221362993
 31
0.0
  0
LINE
  5
481
330
2AD
100
AcDbEntity
  8
Fills_ Pattern_Pen_No__153
  6
Continuous
100
AcDbLine
 10
1570.786211790674
 20
-440.3115950022043
 30
0.0
 11
1571.005022644313
 21
-440.8586221362993
 31
0.0
  0
LINE
  5
482
330
2AD
100
AcDbEntity
  8
Fills_ Pattern_Pen_No__153
  6
Continuous
100
AcDbLine
 10
1470.786211790674
 20
-390.3115950022044
 30
0.0
 11
1471.005022644312
 21
-390.8586221362994
 31
0.0
  0
LINE
  5
483
330
2AD
100
AcDbEntity
  8
Fills_ Pattern_Pen_No__153
  6
Continuous
100
AcDbLine
 10
1520.786211790674
 20
-390.3115950022044
 30
0.0
 11
1521.005022644312
 21
-390.8586221362994
 31
0.0
  0
LINE
  5
484
330
2AD
100
AcDbEntity
  8
Fills_ Pattern_Pen_No__153
  6
Continuous
100
AcDbLine
 10
1570.786211790674
 20
-390.3115950022044
 30
0.0
 11
1571.005022644313
 21
-390.8586221362994
 31
0.0
  0
LINE
  5
485
330
2AD
100
AcDbEntity
  8
Fills_ Pattern_Pen_No__153
  6
Continuous
100
AcDbLine
 10
1526.904039416673
 20
-499.8353259561225
 30
0.0
 11
1527.098080663401
 21
-500.1587280340014
 31
0.0
  0
LINE
  5
486
330
2AD
100
AcDbEntity
  8
Fills_ Pattern_Pen_No__153
  6
Continuous
100
AcDbLine
 10
1576.904039416674
 20
-499.8353259561225
 30
0.0
 11
1577.098080663401
 21
-500.1587280340014
 31
0.0
  0
LINE
  5
487
330
2AD
100
AcDbEntity
  8
Fills_ Pattern_Pen_No__153
  6
Continuous
100
AcDbLine
 10
1526.904039416673
 20
-449.8353259561225
 30
0.0
 11
1527.098080663401
 21
-450.1587280340014
 31
0.0
  0
LINE
  5
488
330
2AD
100
AcDbEntity
  8
Fills_ Pattern_Pen_No__153
  6
Continuous
100
AcDbLine
 10
1576.904039416674
 20
-449.8353259561225
 30
0.0
 11
1577.098080663401
 21
-450.1587280340014
 31
0.0
  0
LINE
  5
489
330
2AD
100
AcDbEntity
  8
Fills_ Pattern_Pen_No__153
  6
Continuous
100
AcDbLine
 10
1476.904039416673
 20
-399.8353259561225
 30
0.0
 11
1477.098080663401
 21
-400.1587280340015
 31
0.0
  0
LINE
  5
48A
330
2AD
100
AcDbEntity
  8
Fills_ Pattern_Pen_No__153
  6
Continuous
100
AcDbLine
 10
1526.904039416673
 20
-399.8353259561225
 30
0.0
 11
1527.098080663401
 21
-400.1587280340015
 31
0.0
  0
LINE
  5
48B
330
2AD
100
AcDbEntity
  8
Fills_ Pattern_Pen_No__153
  6
Continuous
100
AcDbLine
 10
1576.904039416674
 20
-399.8353259561225
 30
0.0
 11
1577.098080663401
 21
-400.1587280340015
 31
0.0
  0
LINE
  5
48C
330
2AD
100
AcDbEntity
  8
Fills_ Pattern_Pen_No__153
  6
Continuous
100
AcDbLine
 10
1518.054423306448
 20
-483.0753879592665
 30
0.0
 11
1516.127925416316
 21
-483.5635021442318
 31
0.0
  0
LINE
  5
48D
330
2AD
100
AcDbEntity
  8
Fills_ Pattern_Pen_No__153
  6
Continuous
100
AcDbLine
 10
1568.054423306448
 20
-483.0753879592665
 30
0.0
 11
1566.127925416316
 21
-483.5635021442318
 31
0.0
  0
LINE
  5
48E
330
2AD
100
AcDbEntity
  8
Fills_ Pattern_Pen_No__153
  6
Continuous
100
AcDbLine
 10
1518.054423306448
 20
-433.0753879592666
 30
0.0
 11
1516.127925416316
 21
-433.5635021442318
 31
0.0
  0
LINE
  5
48F
330
2AD
100
AcDbEntity
  8
Fills_ Pattern_Pen_No__153
  6
Continuous
100
AcDbLine
 10
1568.054423306448
 20
-433.0753879592666
 30
0.0
 11
1566.127925416316
 21
-433.5635021442318
 31
0.0
  0
LINE
  5
490
330
2AD
100
AcDbEntity
  8
Fills_ Pattern_Pen_No__153
  6
Continuous
100
AcDbLine
 10
1468.054423306448
 20
-383.0753879592667
 30
0.0
 11
1466.127925416316
 21
-383.5635021442318
 31
0.0
  0
LINE
  5
491
330
2AD
100
AcDbEntity
  8
Fills_ Pattern_Pen_No__153
  6
Continuous
100
AcDbLine
 10
1518.054423306448
 20
-383.0753879592667
 30
0.0
 11
1516.127925416316
 21
-383.5635021442318
 31
0.0
  0
LINE
  5
492
330
2AD
100
AcDbEntity
  8
Fills_ Pattern_Pen_No__153
  6
Continuous
100
AcDbLine
 10
1568.054423306448
 20
-383.0753879592667
 30
0.0
 11
1566.127925416316
 21
-383.5635021442318
 31
0.0
  0
LINE
  5
493
330
2AD
100
AcDbEntity
  8
Fills_ Pattern_Pen_No__153
  6
Continuous
100
AcDbLine
 10
1516.127925416316
 20
-483.5635021442318
 30
0.0
 11
1517.89688656618
 21
-484.7498984106458
 31
0.0
  0
LINE
  5
494
330
2AD
100
AcDbEntity
  8
Fills_ Pattern_Pen_No__153
  6
Continuous
100
AcDbLine
 10
1566.127925416316
 20
-483.5635021442318
 30
0.0
 11
1567.89688656618
 21
-484.7498984106458
 31
0.0
  0
LINE
  5
495
330
2AD
100
AcDbEntity
  8
Fills_ Pattern_Pen_No__153
  6
Continuous
100
AcDbLine
 10
1516.127925416316
 20
-433.5635021442318
 30
0.0
 11
1517.89688656618
 21
-434.7498984106458
 31
0.0
  0
LINE
  5
496
330
2AD
100
AcDbEntity
  8
Fills_ Pattern_Pen_No__153
  6
Continuous
100
AcDbLine
 10
1566.127925416316
 20
-433.5635021442318
 30
0.0
 11
1567.89688656618
 21
-434.7498984106458
 31
0.0
  0
LINE
  5
497
330
2AD
100
AcDbEntity
  8
Fills_ Pattern_Pen_No__153
  6
Continuous
100
AcDbLine
 10
1466.127925416316
 20
-383.5635021442318
 30
0.0
 11
1467.89688656618
 21
-384.7498984106458
 31
0.0
  0
LINE
  5
498
330
2AD
100
AcDbEntity
  8
Fills_ Pattern_Pen_No__153
  6
Continuous
100
AcDbLine
 10
1516.127925416316
 20
-383.5635021442318
 30
0.0
 11
1517.89688656618
 21
-384.7498984106458
 31
0.0
  0
LINE
  5
499
330
2AD
100
AcDbEntity
  8
Fills_ Pattern_Pen_No__153
  6
Continuous
100
AcDbLine
 10
1566.127925416316
 20
-383.5635021442318
 30
0.0
 11
1567.89688656618
 21
-384.7498984106458
 31
0.0
  0
LINE
  5
49A
330
2AD
100
AcDbEntity
  8
Fills_ Pattern_Pen_No__153
  6
Continuous
100
AcDbLine
 10
1517.89688656618
 20
-484.7498984106458
 30
0.0
 11
1518.054423306448
 21
-483.0753879592665
 31
0.0
  0
LINE
  5
49B
330
2AD
100
AcDbEntity
  8
Fills_ Pattern_Pen_No__153
  6
Continuous
100
AcDbLine
 10
1567.89688656618
 20
-484.7498984106458
 30
0.0
 11
1568.054423306448
 21
-483.0753879592665
 31
0.0
  0
LINE
  5
49C
330
2AD
100
AcDbEntity
  8
Fills_ Pattern_Pen_No__153
  6
Continuous
100
AcDbLine
 10
1517.89688656618
 20
-434.7498984106458
 30
0.0
 11
1518.054423306448
 21
-433.0753879592666
 31
0.0
  0
LINE
  5
49D
330
2AD
100
AcDbEntity
  8
Fills_ Pattern_Pen_No__153
  6
Continuous
100
AcDbLine
 10
1567.89688656618
 20
-434.7498984106458
 30
0.0
 11
1568.054423306448
 21
-433.0753879592666
 31
0.0
  0
LINE
  5
49E
330
2AD
100
AcDbEntity
  8
Fills_ Pattern_Pen_No__153
  6
Continuous
100
AcDbLine
 10
1467.89688656618
 20
-384.7498984106458
 30
0.0
 11
1468.054423306448
 21
-383.0753879592667
 31
0.0
  0
LINE
  5
49F
330
2AD
100
AcDbEntity
  8
Fills_ Pattern_Pen_No__153
  6
Continuous
100
AcDbLine
 10
1517.89688656618
 20
-384.7498984106458
 30
0.0
 11
1518.054423306448
 21
-383.0753879592667
 31
0.0
  0
LINE
  5
4A0
330
2AD
100
AcDbEntity
  8
Fills_ Pattern_Pen_No__153
  6
Continuous
100
AcDbLine
 10
1567.89688656618
 20
-384.7498984106458
 30
0.0
 11
1568.054423306448
 21
-383.0753879592667
 31
0.0
  0
LINE
  5
4A1
330
2AD
100
AcDbEntity
  8
Fills_ Pattern_Pen_No__153
  6
Continuous
100
AcDbLine
 10
1561.504779621482
 20
-495.6161754752502
 30
0.0
 11
1559.394511084844
 21
-495.5730180745478
 31
0.0
  0
LINE
  5
4A2
330
2AD
100
AcDbEntity
  8
Fills_ Pattern_Pen_No__153
  6
Continuous
100
AcDbLine
 10
1511.504779621482
 20
-445.6161754752502
 30
0.0
 11
1509.394511084844
 21
-445.5730180745478
 31
0.0
  0
LINE
  5
4A3
330
2AD
100
AcDbEntity
  8
Fills_ Pattern_Pen_No__153
  6
Continuous
100
AcDbLine
 10
1561.504779621482
 20
-445.6161754752502
 30
0.0
 11
1559.394511084844
 21
-445.5730180745478
 31
0.0
  0
LINE
  5
4A4
330
2AD
100
AcDbEntity
  8
Fills_ Pattern_Pen_No__153
  6
Continuous
100
AcDbLine
 10
1461.504779621482
 20
-395.6161754752502
 30
0.0
 11
1459.647511067849
 21
-395.5781922130306
 31
0.0
  0
LINE
  5
4A5
330
2AD
100
AcDbEntity
  8
Fills_ Pattern_Pen_No__153
  6
Continuous
100
AcDbLine
 10
1511.504779621482
 20
-395.6161754752502
 30
0.0
 11
1509.394511084844
 21
-395.5730180745478
 31
0.0
  0
LINE
  5
4A6
330
2AD
100
AcDbEntity
  8
Fills_ Pattern_Pen_No__153
  6
Continuous
100
AcDbLine
 10
1561.504779621482
 20
-395.6161754752502
 30
0.0
 11
1559.394511084844
 21
-395.5730180745478
 31
0.0
  0
LINE
  5
4A7
330
2AD
100
AcDbEntity
  8
Fills_ Pattern_Pen_No__153
  6
Continuous
100
AcDbLine
 10
1526.775192650881
 20
-478.5477357137831
 30
0.0
 11
1526.556952946857
 21
-478.8553269051319
 31
0.0
  0
LINE
  5
4A8
330
2AD
100
AcDbEntity
  8
Fills_ Pattern_Pen_No__153
  6
Continuous
100
AcDbLine
 10
1576.775192650881
 20
-478.5477357137831
 30
0.0
 11
1576.556952946857
 21
-478.8553269051319
 31
0.0
  0
LINE
  5
4A9
330
2AD
100
AcDbEntity
  8
Fills_ Pattern_Pen_No__153
  6
Continuous
100
AcDbLine
 10
1526.775192650881
 20
-428.5477357137831
 30
0.0
 11
1526.556952946857
 21
-428.8553269051319
 31
0.0
  0
LINE
  5
4AA
330
2AD
100
AcDbEntity
  8
Fills_ Pattern_Pen_No__153
  6
Continuous
100
AcDbLine
 10
1576.775192650881
 20
-428.5477357137831
 30
0.0
 11
1576.556952946857
 21
-428.8553269051319
 31
0.0
  0
LINE
  5
4AB
330
2AD
100
AcDbEntity
  8
Fills_ Pattern_Pen_No__153
  6
Continuous
100
AcDbLine
 10
1476.775192650881
 20
-378.5477357137831
 30
0.0
 11
1476.556952946857
 21
-378.855326905132
 31
0.0
  0
LINE
  5
4AC
330
2AD
100
AcDbEntity
  8
Fills_ Pattern_Pen_No__153
  6
Continuous
100
AcDbLine
 10
1526.775192650881
 20
-378.5477357137831
 30
0.0
 11
1526.556952946857
 21
-378.855326905132
 31
0.0
  0
LINE
  5
4AD
330
2AD
100
AcDbEntity
  8
Fills_ Pattern_Pen_No__153
  6
Continuous
100
AcDbLine
 10
1576.775192650881
 20
-378.5477357137831
 30
0.0
 11
1576.556952946857
 21
-378.855326905132
 31
0.0
  0
LINE
  5
4AE
330
2AD
100
AcDbEntity
  8
Fills_ Pattern_Pen_No__153
  6
Continuous
100
AcDbLine
 10
1560.590797947568
 20
-496.671057206724
 30
0.0
 11
1561.504779621482
 21
-495.6161754752502
 31
0.0
  0
LINE
  5
4AF
330
2AD
100
AcDbEntity
  8
Fills_ Pattern_Pen_No__153
  6
Continuous
100
AcDbLine
 10
1510.590797947568
 20
-446.671057206724
 30
0.0
 11
1511.504779621482
 21
-445.6161754752502
 31
0.0
  0
LINE
  5
4B0
330
2AD
100
AcDbEntity
  8
Fills_ Pattern_Pen_No__153
  6
Continuous
100
AcDbLine
 10
1560.590797947568
 20
-446.671057206724
 30
0.0
 11
1561.504779621482
 21
-445.6161754752502
 31
0.0
  0
LINE
  5
4B1
330
2AD
100
AcDbEntity
  8
Fills_ Pattern_Pen_No__153
  6
Continuous
100
AcDbLine
 10
1460.590797947568
 20
-396.671057206724
 30
0.0
 11
1461.504779621482
 21
-395.6161754752502
 31
0.0
  0
LINE
  5
4B2
330
2AD
100
AcDbEntity
  8
Fills_ Pattern_Pen_No__153
  6
Continuous
100
AcDbLine
 10
1510.590797947568
 20
-396.671057206724
 30
0.0
 11
1511.504779621482
 21
-395.6161754752502
 31
0.0
  0
LINE
  5
4B3
330
2AD
100
AcDbEntity
  8
Fills_ Pattern_Pen_No__153
  6
Continuous
100
AcDbLine
 10
1560.590797947568
 20
-396.671057206724
 30
0.0
 11
1561.504779621482
 21
-395.6161754752502
 31
0.0
  0
LINE
  5
4B4
330
2AD
100
AcDbEntity
  8
Fills_ Pattern_Pen_No__153
  6
Continuous
100
AcDbLine
 10
1559.394511084844
 20
-495.5730180745478
 30
0.0
 11
1560.590797947568
 21
-496.671057206724
 31
0.0
  0
LINE
  5
4B5
330
2AD
100
AcDbEntity
  8
Fills_ Pattern_Pen_No__153
  6
Continuous
100
AcDbLine
 10
1509.394511084844
 20
-445.5730180745478
 30
0.0
 11
1510.590797947568
 21
-446.671057206724
 31
0.0
  0
LINE
  5
4B6
330
2AD
100
AcDbEntity
  8
Fills_ Pattern_Pen_No__153
  6
Continuous
100
AcDbLine
 10
1559.394511084844
 20
-445.5730180745478
 30
0.0
 11
1560.590797947568
 21
-446.671057206724
 31
0.0
  0
LINE
  5
4B7
330
2AD
100
AcDbEntity
  8
Fills_ Pattern_Pen_No__153
  6
Continuous
100
AcDbLine
 10
1459.86135053779
 20
-396.0015172947191
 30
0.0
 11
1460.590797947568
 21
-396.671057206724
 31
0.0
  0
LINE
  5
4B8
330
2AD
100
AcDbEntity
  8
Fills_ Pattern_Pen_No__153
  6
Continuous
100
AcDbLine
 10
1509.394511084844
 20
-395.5730180745478
 30
0.0
 11
1510.590797947568
 21
-396.671057206724
 31
0.0
  0
LINE
  5
4B9
330
2AD
100
AcDbEntity
  8
Fills_ Pattern_Pen_No__153
  6
Continuous
100
AcDbLine
 10
1559.394511084844
 20
-395.5730180745478
 30
0.0
 11
1560.590797947568
 21
-396.671057206724
 31
0.0
  0
LINE
  5
4BA
330
2AD
100
AcDbEntity
  8
Fills_ Pattern_Pen_No__153
  6
Continuous
100
AcDbLine
 10
1530.828270080473
 20
-486.7628082652974
 30
0.0
 11
1529.19583741635
 21
-486.6805420084368
 31
0.0
  0
LINE
  5
4BB
330
2AD
100
AcDbEntity
  8
Fills_ Pattern_Pen_No__153
  6
Continuous
100
AcDbLine
 10
1580.137033051608
 20
-486.727973454516
 30
0.0
 11
1579.19583741635
 21
-486.6805420084368
 31
0.0
  0
LINE
  5
4BC
330
2AD
100
AcDbEntity
  8
Fills_ Pattern_Pen_No__153
  6
Continuous
100
AcDbLine
 10
1530.828270080473
 20
-436.7628082652974
 30
0.0
 11
1529.19583741635
 21
-436.6805420084368
 31
0.0
  0
LINE
  5
4BD
330
2AD
100
AcDbEntity
  8
Fills_ Pattern_Pen_No__153
  6
Continuous
100
AcDbLine
 10
1580.137033051608
 20
-436.727973454516
 30
0.0
 11
1579.19583741635
 21
-436.6805420084368
 31
0.0
  0
LINE
  5
4BE
330
2AD
100
AcDbEntity
  8
Fills_ Pattern_Pen_No__153
  6
Continuous
100
AcDbLine
 10
1480.828270080473
 20
-386.7628082652974
 30
0.0
 11
1479.19583741635
 21
-386.6805420084368
 31
0.0
  0
LINE
  5
4BF
330
2AD
100
AcDbEntity
  8
Fills_ Pattern_Pen_No__153
  6
Continuous
100
AcDbLine
 10
1530.828270080473
 20
-386.7628082652974
 30
0.0
 11
1529.19583741635
 21
-386.6805420084368
 31
0.0
  0
LINE
  5
4C0
330
2AD
100
AcDbEntity
  8
Fills_ Pattern_Pen_No__153
  6
Continuous
100
AcDbLine
 10
1580.137033051608
 20
-386.727973454516
 30
0.0
 11
1579.19583741635
 21
-386.6805420084368
 31
0.0
  0
LINE
  5
4C1
330
2AD
100
AcDbEntity
  8
Fills_ Pattern_Pen_No__153
  6
Continuous
100
AcDbLine
 10
1529.19583741635
 20
-486.6805420084368
 30
0.0
 11
1530.191105642541
 21
-488.0399612066944
 31
0.0
  0
LINE
  5
4C2
330
2AD
100
AcDbEntity
  8
Fills_ Pattern_Pen_No__153
  6
Continuous
100
AcDbLine
 10
1579.19583741635
 20
-486.6805420084368
 30
0.0
 11
1580.137033051608
 21
-487.9661044148472
 31
0.0
  0
LINE
  5
4C3
330
2AD
100
AcDbEntity
  8
Fills_ Pattern_Pen_No__153
  6
Continuous
100
AcDbLine
 10
1529.19583741635
 20
-436.6805420084368
 30
0.0
 11
1530.191105642541
 21
-438.0399612066944
 31
0.0
  0
LINE
  5
4C4
330
2AD
100
AcDbEntity
  8
Fills_ Pattern_Pen_No__153
  6
Continuous
100
AcDbLine
 10
1579.19583741635
 20
-436.6805420084368
 30
0.0
 11
1580.137033051608
 21
-437.9661044148472
 31
0.0
  0
LINE
  5
4C5
330
2AD
100
AcDbEntity
  8
Fills_ Pattern_Pen_No__153
  6
Continuous
100
AcDbLine
 10
1479.19583741635
 20
-386.6805420084368
 30
0.0
 11
1480.191105642541
 21
-388.0399612066944
 31
0.0
  0
LINE
  5
4C6
330
2AD
100
AcDbEntity
  8
Fills_ Pattern_Pen_No__153
  6
Continuous
100
AcDbLine
 10
1529.19583741635
 20
-386.6805420084368
 30
0.0
 11
1530.191105642541
 21
-388.0399612066944
 31
0.0
  0
LINE
  5
4C7
330
2AD
100
AcDbEntity
  8
Fills_ Pattern_Pen_No__153
  6
Continuous
100
AcDbLine
 10
1579.19583741635
 20
-386.6805420084368
 30
0.0
 11
1580.137033051608
 21
-387.9661044148472
 31
0.0
  0
LINE
  5
4C8
330
2AD
100
AcDbEntity
  8
Fills_ Pattern_Pen_No__153
  6
Continuous
100
AcDbLine
 10
1530.191105642541
 20
-488.0399612066944
 30
0.0
 11
1530.828270080473
 21
-486.7628082652974
 31
0.0
  0
LINE
  5
4C9
330
2AD
100
AcDbEntity
  8
Fills_ Pattern_Pen_No__153
  6
Continuous
100
AcDbLine
 10
1530.191105642541
 20
-438.0399612066944
 30
0.0
 11
1530.828270080473
 21
-436.7628082652974
 31
0.0
  0
LINE
  5
4CA
330
2AD
100
AcDbEntity
  8
Fills_ Pattern_Pen_No__153
  6
Continuous
100
AcDbLine
 10
1480.191105642541
 20
-388.0399612066944
 30
0.0
 11
1480.828270080473
 21
-386.7628082652974
 31
0.0
  0
LINE
  5
4CB
330
2AD
100
AcDbEntity
  8
Fills_ Pattern_Pen_No__153
  6
Continuous
100
AcDbLine
 10
1530.191105642541
 20
-388.0399612066944
 30
0.0
 11
1530.828270080473
 21
-386.7628082652974
 31
0.0
  0
ENDBLK
  5
4CC
330
2AD
100
AcDbEntity
  8
0
100
AcDbBlockEnd
  0
BLOCK
  5
4CE
330
4CD
100
AcDbEntity
  8
0
100
AcDbBlockBegin
  2
Fill_3
 70
     0
 10
0.0
 20
0.0
 30
0.0
  3
Fill_3
  1

  0
INSERT
  5
4CF
330
4CD
100
AcDbEntity
  8
Fills_ Pattern_Pen_No__153
  6
Continuous
100
AcDbBlockReference
  2
*X18
 10
0.0
 20
0.0
 30
0.0
  0
LINE
  5
4D0
330
4CD
100
AcDbEntity
  8
Fills_ Pattern_Pen_No__2
  6
Continuous
100
AcDbLine
 10
1611.789636366214
 20
-331.6394728789111
 30
0.0
 11
1609.137033051616
 21
-331.6394728789111
 31
0.0
  0
LINE
  5
4D1
330
4CD
100
AcDbEntity
  8
Fills_ Pattern_Pen_No__2
  6
Continuous
100
AcDbLine
 10
1609.137033051616
 20
-331.6394728789111
 30
0.0
 11
1609.137033051616
 21
-366.6394728789111
 31
0.0
  0
LINE
  5
4D2
330
4CD
100
AcDbEntity
  8
Fills_ Pattern_Pen_No__2
  6
Continuous
100
AcDbLine
 10
1609.137033051616
 20
-366.6394728789111
 30
0.0
 11
1617.947043773621
 21
-366.6394728789111
 31
0.0
  0
LINE
  5
4D3
330
4CD
100
AcDbEntity
  8
Fills_ Pattern_Pen_No__2
  6
Continuous
100
AcDbLine
 10
1617.947043773621
 20
-366.6394728789111
 30
0.0
 11
1611.789636366214
 21
-331.6394728789111
 31
0.0
  0
ENDBLK
  5
4D4
330
4CD
100
AcDbEntity
  8
0
100
AcDbBlockEnd
  0
BLOCK
  5
4D6
330
4D5
100
AcDbEntity
  8
0
100
AcDbBlockBegin
  2
*X18
 70
     1
 10
0.0
 20
0.0
 30
0.0
  3
*X18
  1

  0
LINE
  5
4D7
330
4D5
100
AcDbEntity
  8
Fills_ Pattern_Pen_No__153
  6
Continuous
100
AcDbLine
 10
1612.318139070491
 20
-366.6394728789111
 30
0.0
 11
1612.472627508937
 21
-366.4258107289157
 31
0.0
  0
LINE
  5
4D8
330
4D5
100
AcDbEntity
  8
Fills_ Pattern_Pen_No__153
  6
Continuous
100
AcDbLine
 10
1612.472627508937
 20
-366.4258107289157
 30
0.0
 11
1613.555761957685
 21
-364.9742666362716
 31
0.0
  0
LINE
  5
4D9
330
4D5
100
AcDbEntity
  8
Fills_ Pattern_Pen_No__153
  6
Continuous
100
AcDbLine
 10
1614.554197701881
 20
-366.6394728789111
 30
0.0
 11
1614.760452487658
 21
-366.3555587102469
 31
0.0
  0
LINE
  5
4DA
330
4D5
100
AcDbEntity
  8
Fills_ Pattern_Pen_No__153
  6
Continuous
100
AcDbLine
 10
1614.760452487658
 20
-366.3555587102469
 30
0.0
 11
1616.936137036054
 21
-363.5045358720874
 31
0.0
  0
LINE
  5
4DB
330
4D5
100
AcDbEntity
  8
Fills_ Pattern_Pen_No__153
  6
Continuous
100
AcDbLine
 10
1609.137033051616
 20
-358.7859369970111
 30
0.0
 11
1610.470352628885
 21
-357.0387514649175
 31
0.0
  0
LINE
  5
4DC
330
4D5
100
AcDbEntity
  8
Fills_ Pattern_Pen_No__153
  6
Continuous
100
AcDbLine
 10
1616.936137036054
 20
-363.5045358720874
 30
0.0
 11
1617.312810021701
 21
-363.0343547101012
 31
0.0
  0
LINE
  5
4DD
330
4D5
100
AcDbEntity
  8
Fills_ Pattern_Pen_No__153
  6
Continuous
100
AcDbLine
 10
1610.470352628885
 20
-357.0387514649175
 30
0.0
 11
1612.712646384517
 21
-354.2398135964947
 31
0.0
  0
LINE
  5
4DE
330
4D5
100
AcDbEntity
  8
Fills_ Pattern_Pen_No__153
  6
Continuous
100
AcDbLine
 10
1612.712646384517
 20
-354.2398135964947
 30
0.0
 11
1615.020302911868
 21
-351.494516557991
 31
0.0
  0
LINE
  5
4DF
330
4D5
100
AcDbEntity
  8
Fills_ Pattern_Pen_No__153
  6
Continuous
100
AcDbLine
 10
1615.020302911868
 20
-351.494516557991
 30
0.0
 11
1615.239011518223
 21
-351.2464474271748
 31
0.0
  0
LINE
  5
4E0
330
4D5
100
AcDbEntity
  8
Fills_ Pattern_Pen_No__153
  6
Continuous
100
AcDbLine
 10
1609.137033051616
 20
-344.368017971578
 30
0.0
 11
1610.926255034704
 21
-342.3386019848117
 31
0.0
  0
LINE
  5
4E1
330
4D5
100
AcDbEntity
  8
Fills_ Pattern_Pen_No__153
  6
Continuous
100
AcDbLine
 10
1610.926255034704
 20
-342.3386019848117
 30
0.0
 11
1611.269115512326
 21
-341.9538593178633
 31
0.0
  0
LINE
  5
4E2
330
4D5
100
AcDbEntity
  8
Fills_ Pattern_Pen_No__153
  6
Continuous
100
AcDbLine
 10
1611.269115512326
 20
-341.9538593178633
 30
0.0
 11
1611.606969239082
 21
-341.5647127051283
 31
0.0
  0
LINE
  5
4E3
330
4D5
100
AcDbEntity
  8
Fills_ Pattern_Pen_No__153
  6
Continuous
100
AcDbLine
 10
1611.606969239082
 20
-341.5647127051283
 30
0.0
 11
1611.939759652962
 21
-341.1712272958494
 31
0.0
  0
LINE
  5
4E4
330
4D5
100
AcDbEntity
  8
Fills_ Pattern_Pen_No__153
  6
Continuous
100
AcDbLine
 10
1611.939759652962
 20
-341.1712272958494
 30
0.0
 11
1612.267431039635
 21
-340.7734689656515
 31
0.0
  0
LINE
  5
4E5
330
4D5
100
AcDbEntity
  8
Fills_ Pattern_Pen_No__153
  6
Continuous
100
AcDbLine
 10
1612.267431039635
 20
-340.7734689656515
 30
0.0
 11
1612.589928541774
 21
-340.3715043055135
 31
0.0
  0
LINE
  5
4E6
330
4D5
100
AcDbEntity
  8
Fills_ Pattern_Pen_No__153
  6
Continuous
100
AcDbLine
 10
1612.589928541774
 20
-340.3715043055135
 30
0.0
 11
1612.907198168243
 21
-339.9654006106202
 31
0.0
  0
LINE
  5
4E7
330
4D5
100
AcDbEntity
  8
Fills_ Pattern_Pen_No__153
  6
Continuous
100
AcDbLine
 10
1612.907198168243
 20
-339.9654006106202
 30
0.0
 11
1613.189166082832
 21
-339.5946944260012
 31
0.0
  0
LINE
  5
4E8
330
4D5
100
AcDbEntity
  8
Fills_ Pattern_Pen_No__153
  6
Continuous
100
AcDbLine
 10
1609.137033051616
 20
-362.9283820170373
 30
0.0
 11
1610.32860477312
 21
-361.2549916001944
 31
0.0
  0
LINE
  5
4E9
330
4D5
100
AcDbEntity
  8
Fills_ Pattern_Pen_No__153
  6
Continuous
100
AcDbLine
 10
1617.564930885551
 20
-366.6394728789111
 30
0.0
 11
1617.871386772371
 21
-366.2094225560161
 31
0.0
  0
LINE
  5
4EA
330
4D5
100
AcDbEntity
  8
Fills_ Pattern_Pen_No__153
  6
Continuous
100
AcDbLine
 10
1610.32860477312
 20
-361.2549916001944
 30
0.0
 11
1612.041103475758
 21
-358.8518378292932
 31
0.0
  0
LINE
  5
4EB
330
4D5
100
AcDbEntity
  8
Fills_ Pattern_Pen_No__153
  6
Continuous
100
AcDbLine
 10
1612.041103475758
 20
-358.8518378292932
 30
0.0
 11
1613.754453937338
 21
-356.449291253483
 31
0.0
  0
LINE
  5
4EC
330
4D5
100
AcDbEntity
  8
Fills_ Pattern_Pen_No__153
  6
Continuous
100
AcDbLine
 10
1613.754453937338
 20
-356.449291253483
 30
0.0
 11
1615.468655942571
 21
-354.0473521746581
 31
0.0
  0
LINE
  5
4ED
330
4D5
100
AcDbEntity
  8
Fills_ Pattern_Pen_No__153
  6
Continuous
100
AcDbLine
 10
1615.468655942571
 20
-354.0473521746581
 30
0.0
 11
1615.679818128072
 21
-353.7520849989438
 31
0.0
  0
LINE
  5
4EE
330
4D5
100
AcDbEntity
  8
Fills_ Pattern_Pen_No__153
  6
Continuous
100
AcDbLine
 10
1609.137033051616
 20
-347.3939702964336
 30
0.0
 11
1609.91446894083
 21
-346.306885036529
 31
0.0
  0
LINE
  5
4EF
330
4D5
100
AcDbEntity
  8
Fills_ Pattern_Pen_No__153
  6
Continuous
100
AcDbLine
 10
1609.91446894083
 20
-346.306885036529
 30
0.0
 11
1610.828114923561
 21
-345.0336698495206
 31
0.0
  0
LINE
  5
4F0
330
4D5
100
AcDbEntity
  8
Fills_ Pattern_Pen_No__153
  6
Continuous
100
AcDbLine
 10
1610.828114923561
 20
-345.0336698495206
 30
0.0
 11
1611.743807121059
 21
-343.761925498784
 31
0.0
  0
LINE
  5
4F1
330
4D5
100
AcDbEntity
  8
Fills_ Pattern_Pen_No__153
  6
Continuous
100
AcDbLine
 10
1611.743807121059
 20
-343.761925498784
 30
0.0
 11
1612.661543165497
 21
-342.4916552728368
 31
0.0
  0
LINE
  5
4F2
330
4D5
100
AcDbEntity
  8
Fills_ Pattern_Pen_No__153
  6
Continuous
100
AcDbLine
 10
1612.661543165497
 20
-342.4916552728368
 30
0.0
 11
1613.496248538948
 21
-341.3402157555034
 31
0.0
  0
LINE
  5
4F3
330
4D5
100
AcDbEntity
  8
Fills_ Pattern_Pen_No__153
  6
Continuous
100
AcDbLine
 10
1609.137033051616
 20
-331.9838383707843
 30
0.0
 11
1609.389214841276
 21
-331.6394728789111
 31
0.0
  0
LINE
  5
4F4
330
4D5
100
AcDbEntity
  8
Fills_ Pattern_Pen_No__153
  6
Continuous
100
AcDbLine
 10
1609.137033051616
 20
-365.5269431455075
 30
0.0
 11
1609.452406121038
 21
-365.0722253990962
 31
0.0
  0
LINE
  5
4F5
330
4D5
100
AcDbEntity
  8
Fills_ Pattern_Pen_No__153
  6
Continuous
100
AcDbLine
 10
1609.452406121038
 20
-365.0722253990962
 30
0.0
 11
1611.108106917254
 21
-362.7380437809908
 31
0.0
  0
LINE
  5
4F6
330
4D5
100
AcDbEntity
  8
Fills_ Pattern_Pen_No__153
  6
Continuous
100
AcDbLine
 10
1611.108106917254
 20
-362.7380437809908
 30
0.0
 11
1612.788386609394
 21
-360.4214926572133
 31
0.0
  0
LINE
  5
4F7
330
4D5
100
AcDbEntity
  8
Fills_ Pattern_Pen_No__153
  6
Continuous
100
AcDbLine
 10
1612.788386609394
 20
-360.4214926572133
 30
0.0
 11
1614.493057477082
 21
-358.1228308322055
 31
0.0
  0
LINE
  5
4F8
330
4D5
100
AcDbEntity
  8
Fills_ Pattern_Pen_No__153
  6
Continuous
100
AcDbLine
 10
1614.493057477082
 20
-358.1228308322055
 30
0.0
 11
1616.08038946866
 21
-356.0290168296547
 31
0.0
  0
LINE
  5
4F9
330
4D5
100
AcDbEntity
  8
Fills_ Pattern_Pen_No__153
  6
Continuous
100
AcDbLine
 10
1609.137033051616
 20
-350.1931869416438
 30
0.0
 11
1609.756144667796
 21
-349.3765307046512
 31
0.0
  0
LINE
  5
4FA
330
4D5
100
AcDbEntity
  8
Fills_ Pattern_Pen_No__153
  6
Continuous
100
AcDbLine
 10
1609.756144667796
 20
-349.3765307046512
 30
0.0
 11
1611.09449367322
 21
-347.1260282542659
 31
0.0
  0
LINE
  5
4FB
330
4D5
100
AcDbEntity
  8
Fills_ Pattern_Pen_No__153
  6
Continuous
100
AcDbLine
 10
1611.09449367322
 20
-347.1260282542659
 30
0.0
 11
1612.451326851044
 21
-344.886621398184
 31
0.0
  0
LINE
  5
4FC
330
4D5
100
AcDbEntity
  8
Fills_ Pattern_Pen_No__153
  6
Continuous
100
AcDbLine
 10
1612.451326851044
 20
-344.886621398184
 30
0.0
 11
1613.749986371064
 21
-342.7825150117428
 31
0.0
  0
LINE
  5
4FD
330
4D5
100
AcDbEntity
  8
Fills_ Pattern_Pen_No__153
  6
Continuous
100
AcDbLine
 10
1609.137033051616
 20
-333.3780503532812
 30
0.0
 11
1610.166020961485
 21
-331.7707043013736
 31
0.0
  0
LINE
  5
4FE
330
4D5
100
AcDbEntity
  8
Fills_ Pattern_Pen_No__153
  6
Continuous
100
AcDbLine
 10
1610.166020961485
 20
-331.7707043013736
 30
0.0
 11
1610.251563894683
 21
-331.6394728789111
 31
0.0
  0
LINE
  5
4FF
330
4D5
100
AcDbEntity
  8
Fills_ Pattern_Pen_No__153
  6
Continuous
100
AcDbLine
 10
1610.005120990528
 20
-366.6394728789111
 30
0.0
 11
1610.039017348387
 21
-366.5917295620502
 31
0.0
  0
LINE
  5
500
330
4D5
100
AcDbEntity
  8
Fills_ Pattern_Pen_No__153
  6
Continuous
100
AcDbLine
 10
1610.039017348387
 20
-366.5917295620502
 30
0.0
 11
1611.501202995328
 21
-364.5905307184433
 31
0.0
  0
LINE
  5
501
330
4D5
100
AcDbEntity
  8
Fills_ Pattern_Pen_No__153
  6
Continuous
100
AcDbLine
 10
1611.501202995328
 20
-364.5905307184433
 30
0.0
 11
1612.990505313083
 21
-362.6094294378158
 31
0.0
  0
LINE
  5
502
330
4D5
100
AcDbEntity
  8
Fills_ Pattern_Pen_No__153
  6
Continuous
100
AcDbLine
 10
1612.990505313083
 20
-362.6094294378158
 30
0.0
 11
1614.506648099228
 21
-360.648793130442
 31
0.0
  0
LINE
  5
503
330
4D5
100
AcDbEntity
  8
Fills_ Pattern_Pen_No__153
  6
Continuous
100
AcDbLine
 10
1614.506648099228
 20
-360.648793130442
 30
0.0
 11
1616.049350173573
 21
-358.7089854112117
 31
0.0
  0
LINE
  5
504
330
4D5
100
AcDbEntity
  8
Fills_ Pattern_Pen_No__153
  6
Continuous
100
AcDbLine
 10
1609.137033051616
 20
-352.8046753297968
 30
0.0
 11
1609.583565766404
 21
-352.2432010040419
 31
0.0
  0
LINE
  5
505
330
4D5
100
AcDbEntity
  8
Fills_ Pattern_Pen_No__153
  6
Continuous
100
AcDbLine
 10
1616.049350173573
 20
-358.7089854112117
 30
0.0
 11
1616.462898453525
 21
-358.2032784278356
 31
0.0
  0
LINE
  5
506
330
4D5
100
AcDbEntity
  8
Fills_ Pattern_Pen_No__153
  6
Continuous
100
AcDbLine
 10
1609.583565766404
 20
-352.2432010040419
 30
0.0
 11
1611.152541023135
 21
-350.3245816250254
 31
0.0
  0
LINE
  5
507
330
4D5
100
AcDbEntity
  8
Fills_ Pattern_Pen_No__153
  6
Continuous
100
AcDbLine
 10
1611.152541023135
 20
-350.3245816250254
 30
0.0
 11
1611.683840917718
 21
-349.720604057567
 31
0.0
  0
LINE
  5
508
330
4D5
100
AcDbEntity
  8
Fills_ Pattern_Pen_No__153
  6
Continuous
100
AcDbLine
 10
1611.683840917718
 20
-349.720604057567
 30
0.0
 11
1612.179980162729
 21
-349.0874260971655
 31
0.0
  0
LINE
  5
509
330
4D5
100
AcDbEntity
  8
Fills_ Pattern_Pen_No__153
  6
Continuous
100
AcDbLine
 10
1612.179980162729
 20
-349.0874260971655
 30
0.0
 11
1612.6393570695
 21
-348.4270918352176
 31
0.0
  0
LINE
  5
50A
330
4D5
100
AcDbEntity
  8
Fills_ Pattern_Pen_No__153
  6
Continuous
100
AcDbLine
 10
1612.6393570695
 20
-348.4270918352176
 30
0.0
 11
1613.060488629399
 21
-347.7417330319359
 31
0.0
  0
LINE
  5
50B
330
4D5
100
AcDbEntity
  8
Fills_ Pattern_Pen_No__153
  6
Continuous
100
AcDbLine
 10
1613.060488629399
 20
-347.7417330319359
 30
0.0
 11
1613.442015301421
 21
-347.0335622343786
 31
0.0
  0
LINE
  5
50C
330
4D5
100
AcDbEntity
  8
Fills_ Pattern_Pen_No__153
  6
Continuous
100
AcDbLine
 10
1613.442015301421
 20
-347.0335622343786
 30
0.0
 11
1613.782705401213
 21
-346.3048656336721
 31
0.0
  0
LINE
  5
50D
330
4D5
100
AcDbEntity
  8
Fills_ Pattern_Pen_No__153
  6
Continuous
100
AcDbLine
 10
1613.782705401213
 20
-346.3048656336721
 30
0.0
 11
1614.081459077318
 21
-345.5579956844901
 31
0.0
  0
LINE
  5
50E
330
4D5
100
AcDbEntity
  8
Fills_ Pattern_Pen_No__153
  6
Continuous
100
AcDbLine
 10
1614.081459077318
 20
-345.5579956844901
 30
0.0
 11
1614.184323993029
 21
-345.2513814944885
 31
0.0
  0
LINE
  5
50F
330
4D5
100
AcDbEntity
  8
Fills_ Pattern_Pen_No__153
  6
Continuous
100
AcDbLine
 10
1609.137033051616
 20
-336.1086140280832
 30
0.0
 11
1610.008778215961
 21
-334.6134156648156
 31
0.0
  0
LINE
  5
510
330
4D5
100
AcDbEntity
  8
Fills_ Pattern_Pen_No__153
  6
Continuous
100
AcDbLine
 10
1610.008778215961
 20
-334.6134156648156
 30
0.0
 11
1611.11025922414
 21
-332.7745767485778
 31
0.0
  0
LINE
  5
511
330
4D5
100
AcDbEntity
  8
Fills_ Pattern_Pen_No__153
  6
Continuous
100
AcDbLine
 10
1611.11025922414
 20
-332.7745767485778
 30
0.0
 11
1611.79385193422
 21
-331.6634350549447
 31
0.0
  0
LINE
  5
512
330
4D5
100
AcDbEntity
  8
Fills_ Pattern_Pen_No__153
  6
Continuous
100
AcDbLine
 10
1613.555761957685
 20
-364.9742666362716
 30
0.0
 11
1614.21699544747
 21
-364.1100186916416
 31
0.0
  0
LINE
  5
513
330
4D5
100
AcDbEntity
  8
Fills_ Pattern_Pen_No__153
  6
Continuous
100
AcDbLine
 10
1614.21699544747
 20
-364.1100186916416
 30
0.0
 11
1614.886007683703
 21
-363.2517781277072
 31
0.0
  0
LINE
  5
514
330
4D5
100
AcDbEntity
  8
Fills_ Pattern_Pen_No__153
  6
Continuous
100
AcDbLine
 10
1614.886007683703
 20
-363.2517781277072
 30
0.0
 11
1615.562744091631
 21
-362.399614955542
 31
0.0
  0
LINE
  5
515
330
4D5
100
AcDbEntity
  8
Fills_ Pattern_Pen_No__153
  6
Continuous
100
AcDbLine
 10
1615.562744091631
 20
-362.399614955542
 30
0.0
 11
1616.247149466405
 21
-361.5535986904554
 31
0.0
  0
LINE
  5
516
330
4D5
100
AcDbEntity
  8
Fills_ Pattern_Pen_No__153
  6
Continuous
100
AcDbLine
 10
1609.137033051616
 20
-355.8842945253377
 30
0.0
 11
1609.781365059235
 21
-355.0878142832856
 31
0.0
  0
LINE
  5
517
330
4D5
100
AcDbEntity
  8
Fills_ Pattern_Pen_No__153
  6
Continuous
100
AcDbLine
 10
1616.247149466405
 20
-361.5535986904554
 30
0.0
 11
1616.91065201649
 21
-360.7484039436396
 31
0.0
  0
LINE
  5
518
330
4D5
100
AcDbEntity
  8
Fills_ Pattern_Pen_No__153
  6
Continuous
100
AcDbLine
 10
1609.781365059235
 20
-355.0878142832856
 30
0.0
 11
1610.473383570407
 21
-354.2480139391523
 31
0.0
  0
LINE
  5
519
330
4D5
100
AcDbEntity
  8
Fills_ Pattern_Pen_No__153
  6
Continuous
100
AcDbLine
 10
1610.473383570407
 20
-354.2480139391523
 30
0.0
 11
1611.172958766486
 21
-353.4144980227829
 31
0.0
  0
LINE
  5
51A
330
4D5
100
AcDbEntity
  8
Fills_ Pattern_Pen_No__153
  6
Continuous
100
AcDbLine
 10
1611.172958766486
 20
-353.4144980227829
 30
0.0
 11
1611.880033579545
 21
-352.5873345283345
 31
0.0
  0
LINE
  5
51B
330
4D5
100
AcDbEntity
  8
Fills_ Pattern_Pen_No__153
  6
Continuous
100
AcDbLine
 10
1611.880033579545
 20
-352.5873345283345
 30
0.0
 11
1612.594550329875
 21
-351.7665909317654
 31
0.0
  0
LINE
  5
51C
330
4D5
100
AcDbEntity
  8
Fills_ Pattern_Pen_No__153
  6
Continuous
100
AcDbLine
 10
1612.594550329875
 20
-351.7665909317654
 30
0.0
 11
1613.776772104073
 21
-350.5963679560255
 31
0.0
  0
LINE
  5
51D
330
4D5
100
AcDbEntity
  8
Fills_ Pattern_Pen_No__153
  6
Continuous
100
AcDbLine
 10
1613.776772104073
 20
-350.5963679560255
 30
0.0
 11
1614.880439609625
 21
-349.3517844218562
 31
0.0
  0
LINE
  5
51E
330
4D5
100
AcDbEntity
  8
Fills_ Pattern_Pen_No__153
  6
Continuous
100
AcDbLine
 10
1614.880439609625
 20
-349.3517844218562
 30
0.0
 11
1614.901028259123
 21
-349.3252794280792
 31
0.0
  0
LINE
  5
51F
330
4D5
100
AcDbEntity
  8
Fills_ Pattern_Pen_No__153
  6
Continuous
100
AcDbLine
 10
1609.137033051616
 20
-341.9560400190823
 30
0.0
 11
1609.435101697103
 21
-341.5723185129905
 31
0.0
  0
LINE
  5
520
330
4D5
100
AcDbEntity
  8
Fills_ Pattern_Pen_No__153
  6
Continuous
100
AcDbLine
 10
1609.435101697103
 20
-341.5723185129905
 30
0.0
 11
1610.368012329901
 21
-340.1950938081764
 31
0.0
  0
LINE
  5
521
330
4D5
100
AcDbEntity
  8
Fills_ Pattern_Pen_No__153
  6
Continuous
100
AcDbLine
 10
1610.368012329901
 20
-340.1950938081764
 30
0.0
 11
1611.209442386112
 21
-338.760149350421
 31
0.0
  0
LINE
  5
522
330
4D5
100
AcDbEntity
  8
Fills_ Pattern_Pen_No__153
  6
Continuous
100
AcDbLine
 10
1611.209442386112
 20
-338.760149350421
 30
0.0
 11
1611.955833967019
 21
-337.273552651821
 31
0.0
  0
LINE
  5
523
330
4D5
100
AcDbEntity
  8
Fills_ Pattern_Pen_No__153
  6
Continuous
100
AcDbLine
 10
1611.955833967019
 20
-337.273552651821
 30
0.0
 11
1612.53853674006
 21
-335.8963802670853
 31
0.0
  0
ENDBLK
  5
524
330
4D5
100
AcDbEntity
  8
0
100
AcDbBlockEnd
  0
BLOCK
  5
526
330
525
100
AcDbEntity
  8
0
100
AcDbBlockBegin
  2
Line_1
 70
     0
 10
1541.13703305161
 20
-357.1255854503157
 30
0.0
  3
Line_1
  1

  0
LINE
  5
527
330
525
100
AcDbEntity
  8
Documentation_ Floor_Pen_No__2
  6
Continuous
100
AcDbLine
 10
1541.13703305161
 20
-357.1255854503157
 30
0.0
 11
1541.13703305161
 21
-517.1255854503158
 31
0.0
  0
LINE
  5
528
330
525
100
AcDbEntity
  8
Documentation_ Floor_Pen_No__2
  6
Continuous
100
AcDbLine
 10
1541.13703305161
 20
-357.1255854503157
 30
0.0
 11
1544.13703305161
 21
-360.1255854503157
 31
0.0
  0
LINE
  5
529
330
525
100
AcDbEntity
  8
Documentation_ Floor_Pen_No__2
  6
Continuous
100
AcDbLine
 10
1541.13703305161
 20
-357.1255854503157
 30
0.0
 11
1538.13703305161
 21
-360.1255854503157
 31
0.0
  0
LINE
  5
52A
330
525
100
AcDbEntity
  8
Documentation_ Floor_Pen_No__2
  6
Continuous
100
AcDbLine
 10
1541.13703305161
 20
-517.1255854503158
 30
0.0
 11
1538.13703305161
 21
-514.1255854503158
 31
0.0
  0
LINE
  5
52B
330
525
100
AcDbEntity
  8
Documentation_ Floor_Pen_No__2
  6
Continuous
100
AcDbLine
 10
1541.13703305161
 20
-517.1255854503158
 30
0.0
 11
1544.13703305161
 21
-514.1255854503158
 31
0.0
  0
ENDBLK
  5
52C
330
525
100
AcDbEntity
  8
0
100
AcDbBlockEnd
  0
BLOCK
  5
52E
330
52D
100
AcDbEntity
  8
0
100
AcDbBlockBegin
  2
Line_2
 70
     0
 10
1655.414679149353
 20
-407.1255854503156
 30
0.0
  3
Line_2
  1

  0
LINE
  5
52F
330
52D
100
AcDbEntity
  8
Documentation_ Floor_Pen_No__2
  6
Continuous
100
AcDbLine
 10
1655.414679149353
 20
-407.1255854503156
 30
0.0
 11
1655.414679149353
 21
-517.1255854503158
 31
0.0
  0
LINE
  5
530
330
52D
100
AcDbEntity
  8
Documentation_ Floor_Pen_No__2
  6
Continuous
100
AcDbLine
 10
1655.414679149353
 20
-407.1255854503156
 30
0.0
 11
1658.414679149353
 21
-410.1255854503156
 31
0.0
  0
LINE
  5
531
330
52D
100
AcDbEntity
  8
Documentation_ Floor_Pen_No__2
  6
Continuous
100
AcDbLine
 10
1655.414679149353
 20
-407.1255854503156
 30
0.0
 11
1652.414679149353
 21
-410.1255854503156
 31
0.0
  0
LINE
  5
532
330
52D
100
AcDbEntity
  8
Documentation_ Floor_Pen_No__2
  6
Continuous
100
AcDbLine
 10
1655.414679149353
 20
-517.1255854503158
 30
0.0
 11
1652.414679149353
 21
-514.1255854503158
 31
0.0
  0
LINE
  5
533
330
52D
100
AcDbEntity
  8
Documentation_ Floor_Pen_No__2
  6
Continuous
100
AcDbLine
 10
1655.414679149353
 20
-517.1255854503158
 30
0.0
 11
1658.414679149353
 21
-514.1255854503158
 31
0.0
  0
ENDBLK
  5
534
330
52D
100
AcDbEntity
  8
0
100
AcDbBlockEnd
  0
BLOCK
  5
536
330
535
100
AcDbEntity
  8
0
100
AcDbBlockBegin
  2
PolyLine_11
 70
     0
 10
1851.113199338186
 20
-312.944815239628
 30
0.0
  3
PolyLine_11
  1

  0
CIRCLE
  5
537
330
535
100
AcDbEntity
  8
Documentation_ Floor_Pen_No__1
  6
Continuous
100
AcDbCircle
 10
1882.143914209384
 20
-312.944815239628
 30
0.0
 40
0.5
  0
HATCH
  5
538
330
535
100
AcDbEntity
  8
Documentation_ Floor
  6
Continuous
 62
    18
420
        0
370
     0
100
AcDbHatch
 10
0.0
 20
0.0
 30
0.0
210
0.0
220
0.0
230
1.0
  2
SOLID
 70
     1
 71
     0
 91
        1
 92
        3
 72
     0
 73
     1
 93
       16
 10
1882.643914209385
 20
-312.944815239628
 10
1882.60585397564
 20
-312.7534735234454
 10
1882.497467599978
 20
-312.5912618490347
 10
1882.335255925567
 20
-312.4828754733723
 10
1882.143914209384
 20
-312.444815239628
 10
1881.952572493202
 20
-312.4828754733723
 10
1881.790360818791
 20
-312.5912618490347
 10
1881.681974443129
 20
-312.7534735234454
 10
1881.643914209385
 20
-312.944815239628
 10
1881.681974443129
 20
-313.1361569558105
 10
1881.790360818791
 20
-313.2983686302213
 10
1881.952572493202
 20
-313.4067550058836
 10
1882.143914209384
 20
-313.444815239628
 10
1882.335255925567
 20
-313.4067550058836
 10
1882.497467599978
 20
-313.2983686302213
 10
1882.60585397564
 20
-313.1361569558105
 97
        0
 75
     0
 76
     1
 98
        0
450
        0
451
        0
460
0.0
461
0.0
452
        1
462
0.0
453
        0
470

  0
LWPOLYLINE
  5
539
330
535
100
AcDbEntity
  8
Documentation_ Floor_Pen_No__1
  6
Continuous
100
AcDbPolyline
 90
        2
 70
   128
 43
0.0
 10
1851.113199338186
 20
-312.944815239628
 10
1881.643914209385
 20
-312.944815239628
  0
ENDBLK
  5
53A
330
535
100
AcDbEntity
  8
0
100
AcDbBlockEnd
  0
BLOCK
  5
53C
330
53B
100
AcDbEntity
  8
0
100
AcDbBlockBegin
  2
PolyLine_12
 70
     0
 10
1866.797201963303
 20
-329.3033986228138
 30
0.0
  3
PolyLine_12
  1

  0
CIRCLE
  5
53D
330
53B
100
AcDbEntity
  8
Documentation_ Floor_Pen_No__1
  6
Continuous
100
AcDbCircle
 10
1910.307660858787
 20
-329.3033986228138
 30
0.0
 40
0.5
  0
HATCH
  5
53E
330
53B
100
AcDbEntity
  8
Documentation_ Floor
  6
Continuous
 62
    18
420
        0
370
     0
100
AcDbHatch
 10
0.0
 20
0.0
 30
0.0
210
0.0
220
0.0
230
1.0
  2
SOLID
 70
     1
 71
     0
 91
        1
 92
        3
 72
     0
 73
     1
 93
       16
 10
1910.807660858787
 20
-329.3033986228138
 10
1910.769600625043
 20
-329.1120569066312
 10
1910.661214249381
 20
-328.9498452322205
 10
1910.49900257497
 20
-328.8414588565581
 10
1910.307660858787
 20
-328.8033986228137
 10
1910.116319142605
 20
-328.8414588565581
 10
1909.954107468194
 20
-328.9498452322205
 10
1909.845721092532
 20
-329.1120569066312
 10
1909.807660858788
 20
-329.3033986228138
 10
1909.845721092532
 20
-329.4947403389963
 10
1909.954107468194
 20
-329.6569520134071
 10
1910.116319142605
 20
-329.7653383890694
 10
1910.307660858787
 20
-329.8033986228138
 10
1910.49900257497
 20
-329.7653383890694
 10
1910.661214249381
 20
-329.6569520134071
 10
1910.769600625043
 20
-329.4947403389963
 97
        0
 75
     0
 76
     1
 98
        0
450
        0
451
        0
460
0.0
461
0.0
452
        1
462
0.0
453
        0
470

  0
LWPOLYLINE
  5
53F
330
53B
100
AcDbEntity
  8
Documentation_ Floor_Pen_No__1
  6
Continuous
100
AcDbPolyline
 90
        2
 70
   128
 43
0.0
 10
1866.797201963303
 20
-329.3033986228138
 10
1909.807660858788
 20
-329.3033986228138
  0
ENDBLK
  5
540
330
53B
100
AcDbEntity
  8
0
100
AcDbBlockEnd
  0
ENDSEC
  0
SECTION
  2
ENTITIES
  0
HATCH
  5
3F
330
1F
100
AcDbEntity
  8
Fills_ Pattern_Pen_No__154
  6
Continuous
100
AcDbHatch
 10
0.0
 20
0.0
 30
0.0
210
0.0
220
0.0
230
1.0
  2
SOLID
 70
     1
 71
     0
 91
        1
 92
        3
 72
     1
 73
     1
 93
        4
 10
2320.663820856422
 20
-1125.049791874062
 42
-0.9999999999999998
 10
2320.663820856422
 20
-1115.996216264648
 42
0.0
 10
2306.137033051601
 20
-1115.996216264648
 42
-0.4418143916355776
 10
2306.137033051601
 20
-1125.049791874062
 42
0.0
 97
        0
 75
     0
 76
     1
 98
        0
450
        0
451
        0
460
0.0
461
0.0
452
        1
462
0.0
453
        0
470

  0
HATCH
  5
41
330
1F
100
AcDbEntity
  8
Fills_ Pattern_Pen_No__153
  6
Continuous
100
AcDbHatch
 10
0.0
 20
0.0
 30
0.0
210
0.0
220
0.0
230
1.0
  2
SOLID
 70
     1
 71
     1
 91
        1
 92
        3
 72
     1
 73
     1
 93
        2
 10
2325.190608661129
 20
-1120.523004069355
 42
0.9999999999999998
 10
2316.137033051715
 20
-1120.523004069355
 42
0.9999999999999998
 97
        1
330
44
 75
     0
 76
     1
 98
        0
450
        0
451
        0
460
0.0
461
0.0
452
        1
462
0.0
453
        0
470

  0
LWPOLYLINE
  5
44
102
{ACAD_REACTORS
330
41
102
}
330
1F
100
AcDbEntity
  8
Fills_ Pattern_Pen_No__2
  6
Continuous
100
AcDbPolyline
 90
        2
 70
   129
 43
0.0
 10
2325.190608661129
 20
-1120.523004069355
 42
0.9999999999999998
 10
2316.137033051715
 20
-1120.523004069355
 42
0.9999999999999998
  0
HATCH
  5
45
330
1F
100
AcDbEntity
  8
Fills_ Pattern_Pen_No__152
  6
Continuous
100
AcDbHatch
 10
0.0
 20
0.0
 30
0.0
210
0.0
220
0.0
230
1.0
  2
SOLID
 70
     1
 71
     0
 91
        1
 92
        3
 72
     0
 73
     1
 93
        4
 10
2282.355887181163
 20
-1062.754217066912
 10
2292.355887181154
 20
-1062.754217066912
 10
2292.355887181154
 20
-1347.125585450317
 10
2282.355887181163
 20
-1347.125585450317
 97
        0
 75
     0
 76
     1
 98
        0
450
        0
451
        0
460
0.0
461
0.0
452
        1
462
0.0
453
        0
470

  0
HATCH
  5
47
330
1F
100
AcDbEntity
  8
0_Pen_No__153
  6
Continuous
100
AcDbHatch
 10
0.0
 20
0.0
 30
0.0
210
0.0
220
0.0
230
1.0
  2
LINES___VERTICAL
 70
     0
 71
     0
 91
        1
 92
        3
 72
     0
 73
     1
 93
        4
 10
2296.137033051715
 20
-1170.049791874135
 10
2386.137033051747
 20
-1170.049791874135
 10
2386.137033051747
 20
-1347.125585450317
 10
2296.137033051715
 20
-1347.125585450317
 97
        0
 75
     0
 76
     2
 52
0.0
 41
1.0
 77
     0
 78
     1
 53
90.00000000000003
 43
0.0
 44
0.0
 45
-10.0
 46
0.0
 79
     0
 98
        0
  0
HATCH
  5
49
330
1F
100
AcDbEntity
  8
Fills_ Pattern_Pen_No__151
  6
Continuous
100
AcDbHatch
 10
0.0
 20
0.0
 30
0.0
210
0.0
220
0.0
230
1.0
  2
SOLID
 70
     1
 71
     1
 91
        1
 92
        3
 72
     0
 73
     1
 93
        4
 10
2296.137033051715
 20
-1125.049791874062
 10
2386.137033051747
 20
-1125.049791874062
 10
2386.137033051747
 20
-1170.049791874135
 10
2296.137033051715
 20
-1170.049791874135
 97
        1
330
4C
 75
     0
 76
     1
 98
        0
450
        0
451
        0
460
0.0
461
0.0
452
        1
462
0.0
453
        0
470

  0
LWPOLYLINE
  5
4C
102
{ACAD_REACTORS
330
49
102
}
330
1F
100
AcDbEntity
  8
Fills_ Pattern_Pen_No__5
  6
Continuous
100
AcDbPolyline
 90
        4
 70
   129
 43
0.0
 10
2296.137033051715
 20
-1125.049791874062
 10
2386.137033051747
 20
-1125.049791874062
 10
2386.137033051747
 20
-1170.049791874135
 10
2296.137033051715
 20
-1170.049791874135
  0
HATCH
  5
4D
330
1F
100
AcDbEntity
  8
Fills_ Pattern_Pen_No__153
  6
Continuous
100
AcDbHatch
 10
0.0
 20
0.0
 30
0.0
210
0.0
220
0.0
230
1.0
  2
SOLID
 70
     1
 71
     0
 91
        1
 92
        3
 72
     0
 73
     1
 93
        4
 10
2403.506567082021
 20
-1117.996216264649
 10
2431.137033051748
 20
-1117.996216264649
 10
2431.137033051748
 20
-1115.996216264648
 10
2403.506567082021
 20
-1115.996216264648
 97
        0
 75
     0
 76
     1
 98
        0
450
        0
451
        0
460
0.0
461
0.0
452
        1
462
0.0
453
        0
470

  0
HATCH
  5
4E
330
1F
100
AcDbEntity
  8
Fills_ Pattern_Pen_No__153
  6
Continuous
100
AcDbHatch
 10
0.0
 20
0.0
 30
0.0
210
0.0
220
0.0
230
1.0
  2
SOLID
 70
     1
 71
     1
 91
        1
 92
        3
 72
     0
 73
     1
 93
       18
 10
2430.137033051748
 20
-1126.549791874069
 10
2410.137033051749
 20
-1126.549791874069
 10
2413.137033051749
 20
-1128.549791874061
 10
2413.137033051749
 20
-1132.549791874059
 10
2410.137033051749
 20
-1134.54979187406
 10
2410.137033051749
 20
-1159.549791874062
 10
2413.137033051749
 20
-1161.549791874062
 10
2413.137033051749
 20
-1165.54979187406
 10
2410.137033051749
 20
-1167.549791874061
 10
2410.137033051749
 20
-1182.049791874063
 10
2420.137033051748
 20
-1184.549791874062
 10
2420.137033051748
 20
-1195.549791874061
 10
2423.137033051748
 20
-1195.549791874061
 10
2423.137033051748
 20
-1201.549791874061
 10
2420.137033051748
 20
-1201.549791874061
 10
2420.137033051748
 20
-1211.549791874063
 10
2428.137033051744
 20
-1211.549791874065
 10
2430.137033051748
 20
-1209.54979187406
 97
        1
330
50
 75
     0
 76
     1
 98
        0
450
        0
451
        0
460
0.0
461
0.0
452
        1
462
0.0
453
        0
470

  0
LWPOLYLINE
  5
50
102
{ACAD_REACTORS
330
4E
102
}
330
1F
100
AcDbEntity
  8
Fills_ Pattern_Pen_No__4
  6
Continuous
100
AcDbPolyline
 90
       18
 70
   129
 43
0.0
 10
2430.137033051748
 20
-1126.549791874069
 10
2410.137033051749
 20
-1126.549791874069
 10
2413.137033051749
 20
-1128.549791874061
 10
2413.137033051749
 20
-1132.549791874059
 10
2410.137033051749
 20
-1134.54979187406
 10
2410.137033051749
 20
-1159.549791874062
 10
2413.137033051749
 20
-1161.549791874062
 10
2413.137033051749
 20
-1165.54979187406
 10
2410.137033051749
 20
-1167.549791874061
 10
2410.137033051749
 20
-1182.049791874063
 10
2420.137033051748
 20
-1184.549791874062
 10
2420.137033051748
 20
-1195.549791874061
 10
2423.137033051748
 20
-1195.549791874061
 10
2423.137033051748
 20
-1201.549791874061
 10
2420.137033051748
 20
-1201.549791874061
 10
2420.137033051748
 20
-1211.549791874063
 10
2428.137033051744
 20
-1211.549791874065
 10
2430.137033051748
 20
-1209.54979187406
  0
HATCH
  5
51
330
1F
100
AcDbEntity
  8
Fills_ Pattern_Pen_No__153
  6
Continuous
100
AcDbHatch
 10
0.0
 20
0.0
 30
0.0
210
0.0
220
0.0
230
1.0
  2
SOLID
 70
     1
 71
     1
 91
        1
 92
        3
 72
     1
 73
     1
 93
       25
 10
2430.137033051748
 20
-1236.549791874068
 42
-0.192582403567185
 10
2420.137033051748
 20
-1211.549791874061
 42
0.0
 10
2420.137033051748
 20
-1201.549791874061
 42
0.0
 10
2417.137033051748
 20
-1201.549791874061
 42
0.0
 10
2417.137033051748
 20
-1195.549791874061
 42
0.0
 10
2420.137033051748
 20
-1195.549791874061
 42
0.0
 10
2420.137033051748
 20
-1186.549791874063
 42
0.0
 10
2410.137033051749
 20
-1186.549791874063
 42
0.0
 10
2410.137033051749
 20
-1236.54979187406
 42
0.0
 10
2413.137033051749
 20
-1238.54979187406
 42
0.0
 10
2413.137033051749
 20
-1242.549791874058
 42
0.0
 10
2410.137033051749
 20
-1244.549791874059
 42
0.0
 10
2410.137033051749
 20
-1269.549791874061
 42
0.0
 10
2413.137033051749
 20
-1271.549791874061
 42
0.0
 10
2413.137033051749
 20
-1275.549791874059
 42
0.0
 10
2410.137033051749
 20
-1277.54979187406
 42
0.0
 10
2410.137033051749
 20
-1292.049791874062
 42
0.0
 10
2420.137033051748
 20
-1294.549791874061
 42
0.0
 10
2420.137033051748
 20
-1305.549791874061
 42
0.0
 10
2423.137033051748
 20
-1305.549791874061
 42
0.0
 10
2423.137033051748
 20
-1311.549791874061
 42
0.0
 10
2420.137033051748
 20
-1311.549791874061
 42
0.0
 10
2420.137033051748
 20
-1321.549791874062
 42
0.0
 10
2428.137033051744
 20
-1321.549791874064
 42
0.0
 10
2430.137033051748
 20
-1319.54979187406
 42
0.0
 97
        1
330
52
 75
     0
 76
     1
 98
        0
450
        0
451
        0
460
0.0
461
0.0
452
        1
462
0.0
453
        0
470

  0
LWPOLYLINE
  5
52
102
{ACAD_REACTORS
330
51
102
}
330
1F
100
AcDbEntity
  8
Fills_ Pattern_Pen_No__4
  6
Continuous
100
AcDbPolyline
 90
       25
 70
   129
 43
0.0
 10
2430.137033051748
 20
-1236.549791874068
 42
-0.192582403567185
 10
2420.137033051748
 20
-1211.549791874061
 10
2420.137033051748
 20
-1201.549791874061
 10
2417.137033051748
 20
-1201.549791874061
 10
2417.137033051748
 20
-1195.549791874061
 10
2420.137033051748
 20
-1195.549791874061
 10
2420.137033051748
 20
-1186.549791874063
 10
2410.137033051749
 20
-1186.549791874063
 10
2410.137033051749
 20
-1236.54979187406
 10
2413.137033051749
 20
-1238.54979187406
 10
2413.137033051749
 20
-1242.549791874058
 10
2410.137033051749
 20
-1244.549791874059
 10
2410.137033051749
 20
-1269.549791874061
 10
2413.137033051749
 20
-1271.549791874061
 10
2413.137033051749
 20
-1275.549791874059
 10
2410.137033051749
 20
-1277.54979187406
 10
2410.137033051749
 20
-1292.049791874062
 10
2420.137033051748
 20
-1294.549791874061
 10
2420.137033051748
 20
-1305.549791874061
 10
2423.137033051748
 20
-1305.549791874061
 10
2423.137033051748
 20
-1311.549791874061
 10
2420.137033051748
 20
-1311.549791874061
 10
2420.137033051748
 20
-1321.549791874062
 10
2428.137033051744
 20
-1321.549791874064
 10
2430.137033051748
 20
-1319.54979187406
  0
HATCH
  5
53
330
1F
100
AcDbEntity
  8
Fills_ Pattern_Pen_No__153
  6
Continuous
100
AcDbHatch
 10
0.0
 20
0.0
 30
0.0
210
0.0
220
0.0
230
1.0
  2
SOLID
 70
     1
 71
     0
 91
        1
 92
        3
 72
     1
 73
     1
 93
       11
 10
2430.137033051748
 20
-1346.549791874068
 42
-0.1925824035671927
 10
2420.137033051748
 20
-1321.54979187406
 42
0.0
 10
2420.137033051748
 20
-1311.549791874061
 42
0.0
 10
2417.137033051748
 20
-1311.549791874061
 42
0.0
 10
2417.137033051748
 20
-1305.549791874061
 42
0.0
 10
2420.137033051748
 20
-1305.549791874061
 42
0.0
 10
2420.137033051748
 20
-1296.549791874062
 42
0.0
 10
2410.137033051749
 20
-1296.549791874062
 42
0.0
 10
2410.137033051749
 20
-1346.549791874059
 42
0.0
 10
2411.000723416135
 20
-1347.125585450317
 42
0.0
 10
2430.137033051748
 20
-1347.125585450317
 42
0.0
 97
        0
 75
     0
 76
     1
 98
        0
450
        0
451
        0
460
0.0
461
0.0
452
        1
462
0.0
453
        0
470

  0
LINE
  5
54
330
1F
100
AcDbEntity
  8
0_Pen_No__2
  6
Continuous
100
AcDbLine
 10
2296.137033051715
 20
-1170.049791874135
 30
0.0
 11
2296.137033051715
 21
-1347.125585450317
 31
0.0
  0
LINE
  5
56
330
1F
100
AcDbEntity
  8
0_Pen_No__2
  6
Continuous
100
AcDbLine
 10
2386.137033051747
 20
-1170.049791874135
 30
0.0
 11
2386.137033051747
 21
-1347.125585450317
 31
0.0
  0
LINE
  5
57
330
1F
100
AcDbEntity
  8
0_Pen_No__2
  6
Continuous
100
AcDbLine
 10
2409.137033051749
 20
-1347.125585450317
 30
0.0
 11
2409.137033051749
 21
-1125.049791874062
 31
0.0
  0
LINE
  5
59
330
1F
100
AcDbEntity
  8
0_Pen_No__2
  6
Building Wrap
100
AcDbLine
 10
2388.1370330517
 20
-1347.125585450317
 30
0.0
 11
2388.1370330517
 21
-1125.049791874062
 31
0.0
  0
LINE
  5
5A
330
1F
100
AcDbEntity
  8
0_Pen_No__2
  6
Continuous
100
AcDbLine
 10
2391.137033051749
 20
-1347.125585450317
 30
0.0
 11
2391.137033051749
 21
-1125.049791874062
 31
0.0
  0
LINE
  5
5B
330
1F
100
AcDbEntity
  8
0_Pen_No__1
  6
Continuous
100
AcDbLine
 10
2296.137033051715
 20
-1125.049791874062
 30
0.0
 11
2386.137033051747
 21
-1170.049791874135
 31
0.0
  0
LINE
  5
5E
330
1F
100
AcDbEntity
  8
0_Pen_No__2
  6
Building Wrap Tape
100
AcDbLine
 10
2386.137033051747
 20
-1121.049791874063
 30
0.0
 11
2296.137033051715
 21
-1121.049791874063
 31
0.0
  0
LINE
  5
5F
330
1F
100
AcDbEntity
  8
0_Pen_No__2
  6
Continuous
100
AcDbLine
 10
2409.137033051749
 20
-1125.049791874062
 30
0.0
 11
2391.137033051749
 21
-1125.049791874062
 31
0.0
  0
LINE
  5
60
330
1F
100
AcDbEntity
  8
0_Pen_No__2
  6
Building Wrap
100
AcDbLine
 10
2294.137033051763
 20
-1169.414971073593
 30
0.0
 11
2294.137033051763
 21
-1125.049791874062
 31
0.0
  0
LINE
  5
61
330
1F
100
AcDbEntity
  8
0_Pen_No__1
  6
Continuous
100
AcDbLine
 10
2296.137033051715
 20
-1170.049791874135
 30
0.0
 11
2386.137033051747
 21
-1125.049791874062
 31
0.0
  0
LINE
  5
62
330
1F
100
AcDbEntity
  8
0_Pen_No__2
  6
Building Wrap
100
AcDbLine
 10
2386.137033051705
 20
-1123.049791874064
 30
0.0
 11
2296.137033051673
 21
-1123.049791874064
 31
0.0
  0
LINE
  5
63
330
1F
100
AcDbEntity
  8
0_Pen_No__2
  6
Building Wrap Tape
100
AcDbLine
 10
2390.137033051695
 20
-1125.049791874062
 30
0.0
 11
2390.137033051695
 21
-1175.334463387129
 31
0.0
  0
LINE
  5
64
330
1F
100
AcDbEntity
  8
Documentation_ Floor_Pen_No__1
  6
Continuous
100
AcDbLine
 10
2411.854988787385
 20
-1117.996216264649
 30
0.0
 11
2416.854988787388
 21
-1117.996216264649
 31
0.0
  0
LINE
  5
66
330
1F
100
AcDbEntity
  8
Documentation_ Floor_Pen_No__5
  6
Continuous
100
AcDbLine
 10
2506.137033051604
 20
-1115.996216264648
 30
0.0
 11
2506.137033051604
 21
-1062.754217066912
 31
0.0
  0
LINE
  5
68
330
1F
100
AcDbEntity
  8
Documentation_ Floor_Pen_No__1
  6
Continuous
100
AcDbLine
 10
2412.85498878739
 20
-1117.996216264649
 30
0.0
 11
2412.85498878739
 21
-1115.996216264647
 31
0.0
  0
LINE
  5
69
330
1F
100
AcDbEntity
  8
Documentation_ Floor_Pen_No__1
  6
Continuous
100
AcDbLine
 10
2416.854988787388
 20
-1117.996216264649
 30
0.0
 11
2416.854988787388
 21
-1119.678674630171
 31
0.0
  0
LINE
  5
6A
330
1F
100
AcDbEntity
  8
Documentation_ Floor_Pen_No__5
  6
Continuous
100
AcDbLine
 10
2306.137033051601
 20
-1115.996216264648
 30
0.0
 11
2506.137033051604
 21
-1115.996216264648
 31
0.0
  0
LINE
  5
6B
330
1F
100
AcDbEntity
  8
Documentation_ Floor_Pen_No__1
  6
Continuous
100
AcDbLine
 10
2415.854988787391
 20
-1117.996216264649
 30
0.0
 11
2415.854988787391
 21
-1115.996216264647
 31
0.0
  0
LINE
  5
6C
330
1F
100
AcDbEntity
  8
Documentation_ Floor_Pen_No__5
  6
Continuous
100
AcDbLine
 10
2403.506567082021
 20
-1117.996216264649
 30
0.0
 11
2431.137033051748
 21
-1117.996216264649
 31
0.0
  0
LINE
  5
6D
330
1F
100
AcDbEntity
  8
Documentation_ Floor_Pen_No__1
  6
Continuous
100
AcDbLine
 10
2411.854988787385
 20
-1117.996216264649
 30
0.0
 11
2411.854988787385
 21
-1119.678674630171
 31
0.0
  0
LINE
  5
6E
330
1F
100
AcDbEntity
  8
Documentation_ Floor_Pen_No__1
  6
Continuous
100
AcDbLine
 10
2412.85498878739
 20
-1110.996216264644
 30
0.0
 11
2415.854988787391
 21
-1110.996216264644
 31
0.0
  0
LINE
  5
6F
330
1F
100
AcDbEntity
  8
Documentation_ Floor_Pen_No__5
  6
Continuous
100
AcDbLine
 10
2306.137033051601
 20
-1115.996216264648
 30
0.0
 11
2306.137033051601
 21
-1062.754217066912
 31
0.0
  0
LINE
  5
70
330
1F
100
AcDbEntity
  8
Documentation_ Floor_Pen_No__2
  6
Continuous
100
AcDbLine
 10
2282.355887181163
 20
-1062.754217066912
 30
0.0
 11
2282.355887181163
 21
-1347.125585450317
 31
0.0
  0
LINE
  5
72
330
1F
100
AcDbEntity
  8
Documentation_ Floor_Pen_No__2
  6
Continuous
100
AcDbLine
 10
2292.355887181154
 20
-1347.125585450317
 30
0.0
 11
2292.355887181154
 21
-1062.754217066912
 31
0.0
  0
LINE
  5
73
330
1F
100
AcDbEntity
  8
Documentation_ Floor_Pen_No__5
  6
Continuous
100
AcDbLine
 10
2431.137033051748
 20
-1117.996216264649
 30
0.0
 11
2431.137033051748
 21
-1159.996216264649
 31
0.0
  0
LINE
  5
74
330
1F
100
AcDbEntity
  8
Documentation_ Floor_Pen_No__5
  6
Continuous
100
AcDbLine
 10
2431.137033051748
 20
-1159.996216264649
 30
0.0
 11
2435.231677391139
 21
-1162.865691431624
 31
0.0
  0
LINE
  5
75
330
1F
100
AcDbEntity
  8
Documentation_ Floor_Pen_No__5
  6
Continuous
100
AcDbLine
 10
2435.231677391139
 20
-1162.865691431624
 30
0.0
 11
2432.362202224164
 21
-1166.960335771016
 31
0.0
  0
LINE
  5
76
330
1F
100
AcDbEntity
  8
Documentation_ Floor_Pen_No__4
  6
Continuous
100
AcDbLine
 10
2415.587033051748
 20
-1201.173031815848
 30
0.0
 11
2415.587033051748
 21
-1201.673031815848
 31
0.0
  0
LINE
  5
78
330
1F
100
AcDbEntity
  8
False Bits_ Plan_Pen_No__1
  6
Continuous
100
AcDbLine
 10
2368.12252596061
 20
-1181.642562243847
 30
0.0
 11
2368.122525960609
 21
-1178.892562243845
 31
0.0
  0
LINE
  5
7A
330
1F
100
AcDbEntity
  8
False Bits_ Plan_Pen_No__1
  6
Continuous
100
AcDbLine
 10
2366.622525960611
 20
-1181.642562243849
 30
0.0
 11
2366.62252596061
 21
-1178.892562243847
 31
0.0
  0
LINE
  5
7B
330
1F
100
AcDbEntity
  8
False Bits_ Plan_Pen_No__1
  6
Continuous
100
AcDbLine
 10
2365.122525960611
 20
-1181.642562243849
 30
0.0
 11
2365.122525960611
 21
-1178.892562243847
 31
0.0
  0
LINE
  5
7C
330
1F
100
AcDbEntity
  8
False Bits_ Plan_Pen_No__1
  6
Continuous
100
AcDbLine
 10
2369.622525960611
 20
-1181.642562243849
 30
0.0
 11
2369.622525960611
 21
-1178.892562243847
 31
0.0
  0
LINE
  5
7D
330
1F
100
AcDbEntity
  8
False Bits_ Plan_Pen_No__1
  6
Continuous
100
AcDbLine
 10
2362.122525960609
 20
-1181.642562243849
 30
0.0
 11
2362.12252596061
 21
-1178.892562243847
 31
0.0
  0
LINE
  5
7E
330
1F
100
AcDbEntity
  8
False Bits_ Plan_Pen_No__1
  6
Continuous
100
AcDbLine
 10
2371.12252596061
 20
-1181.642562243847
 30
0.0
 11
2371.122525960611
 21
-1178.892562243845
 31
0.0
  0
LINE
  5
7F
330
1F
100
AcDbEntity
  8
False Bits_ Plan_Pen_No__1
  6
Continuous
100
AcDbLine
 10
2360.622525960609
 20
-1181.642562243849
 30
0.0
 11
2360.622525960611
 21
-1178.892562243847
 31
0.0
  0
LINE
  5
80
330
1F
100
AcDbEntity
  8
False Bits_ Plan_Pen_No__2
  6
Continuous
100
AcDbLine
 10
2355.137033051748
 20
-1180.267562243847
 30
0.0
 11
2357.622525960612
 21
-1178.692562243847
 31
0.0
  0
LINE
  5
82
330
1F
100
AcDbEntity
  8
False Bits_ Plan_Pen_No__1
  6
Continuous
100
AcDbLine
 10
2357.622525960609
 20
-1181.642562243848
 30
0.0
 11
2357.622525960609
 21
-1178.892562243847
 31
0.0
  0
LINE
  5
83
330
1F
100
AcDbEntity
  8
False Bits_ Plan_Pen_No__1
  6
Continuous
100
AcDbLine
 10
2359.122525960609
 20
-1181.642562243849
 30
0.0
 11
2359.12252596061
 21
-1178.892562243847
 31
0.0
  0
LINE
  5
84
330
1F
100
AcDbEntity
  8
False Bits_ Plan_Pen_No__1
  6
Continuous
100
AcDbLine
 10
2380.122525960612
 20
-1181.642562243848
 30
0.0
 11
2380.122525960611
 21
-1178.892562243846
 31
0.0
  0
LINE
  5
85
330
1F
100
AcDbEntity
  8
False Bits_ Plan_Pen_No__1
  6
Continuous
100
AcDbLine
 10
2381.622525960612
 20
-1181.642562243846
 30
0.0
 11
2381.62252596061
 21
-1178.892562243846
 31
0.0
  0
LINE
  5
86
330
1F
100
AcDbEntity
  8
False Bits_ Plan_Pen_No__2
  6
Continuous
100
AcDbLine
 10
2430.137033051749
 20
-1181.842562243845
 30
0.0
 11
2357.622525960607
 21
-1181.842562243848
 31
0.0
  0
LINE
  5
87
330
1F
100
AcDbEntity
  8
False Bits_ Plan_Pen_No__1
  6
Continuous
100
AcDbLine
 10
2372.622525960609
 20
-1181.642562243846
 30
0.0
 11
2372.62252596061
 21
-1178.892562243845
 31
0.0
  0
LINE
  5
88
330
1F
100
AcDbEntity
  8
False Bits_ Plan_Pen_No__1
  6
Continuous
100
AcDbLine
 10
2374.12252596061
 20
-1181.642562243846
 30
0.0
 11
2374.12252596061
 21
-1178.892562243847
 31
0.0
  0
LINE
  5
89
330
1F
100
AcDbEntity
  8
False Bits_ Plan_Pen_No__1
  6
Continuous
100
AcDbLine
 10
2375.622525960611
 20
-1181.642562243848
 30
0.0
 11
2375.622525960611
 21
-1178.892562243846
 31
0.0
  0
LINE
  5
8A
330
1F
100
AcDbEntity
  8
False Bits_ Plan_Pen_No__1
  6
Continuous
100
AcDbLine
 10
2378.62252596061
 20
-1181.642562243846
 30
0.0
 11
2378.62252596061
 21
-1178.892562243846
 31
0.0
  0
LINE
  5
8B
330
1F
100
AcDbEntity
  8
False Bits_ Plan_Pen_No__1
  6
Continuous
100
AcDbLine
 10
2384.62252596061
 20
-1181.642562243846
 30
0.0
 11
2384.62252596061
 21
-1178.892562243847
 31
0.0
  0
LINE
  5
8C
330
1F
100
AcDbEntity
  8
False Bits_ Plan_Pen_No__1
  6
Continuous
100
AcDbLine
 10
2377.122525960609
 20
-1181.642562243846
 30
0.0
 11
2377.122525960612
 21
-1178.892562243846
 31
0.0
  0
LINE
  5
8D
330
1F
100
AcDbEntity
  8
False Bits_ Plan_Pen_No__1
  6
Continuous
100
AcDbLine
 10
2383.12252596061
 20
-1181.642562243847
 30
0.0
 11
2383.12252596061
 21
-1178.892562243847
 31
0.0
  0
LINE
  5
8E
330
1F
100
AcDbEntity
  8
False Bits_ Plan_Pen_No__2
  6
Continuous
100
AcDbLine
 10
2430.137033051749
 20
-1178.692562243845
 30
0.0
 11
2357.62252596061
 21
-1178.692562243847
 31
0.0
  0
LINE
  5
8F
330
1F
100
AcDbEntity
  8
False Bits_ Plan_Pen_No__1
  6
Continuous
100
AcDbLine
 10
2395.122525960611
 20
-1181.642562243847
 30
0.0
 11
2395.122525960611
 21
-1178.892562243847
 31
0.0
  0
LINE
  5
90
330
1F
100
AcDbEntity
  8
False Bits_ Plan_Pen_No__1
  6
Continuous
100
AcDbLine
 10
2399.622525960611
 20
-1181.642562243848
 30
0.0
 11
2399.62252596061
 21
-1178.892562243845
 31
0.0
  0
LINE
  5
91
330
1F
100
AcDbEntity
  8
False Bits_ Plan_Pen_No__1
  6
Continuous
100
AcDbLine
 10
2393.62252596061
 20
-1181.642562243847
 30
0.0
 11
2393.622525960612
 21
-1178.892562243845
 31
0.0
  0
LINE
  5
92
330
1F
100
AcDbEntity
  8
False Bits_ Plan_Pen_No__1
  6
Continuous
100
AcDbLine
 10
2392.122525960609
 20
-1181.642562243847
 30
0.0
 11
2392.122525960612
 21
-1178.892562243847
 31
0.0
  0
LINE
  5
93
330
1F
100
AcDbEntity
  8
Documentation_ Floor_Pen_No__2
  6
Continuous
100
AcDbLine
 10
2431.637033051749
 20
-1180.267562243847
 30
0.0
 11
2430.637033051748
 21
-1183.407562243846
 31
0.0
  0
LINE
  5
94
330
1F
100
AcDbEntity
  8
Documentation_ Floor_Pen_No__2
  6
Continuous
100
AcDbLine
 10
2430.63703305175
 20
-1177.127562243849
 30
0.0
 11
2431.637033051749
 21
-1180.267562243847
 31
0.0
  0
LINE
  5
95
330
1F
100
AcDbEntity
  8
False Bits_ Plan_Pen_No__1
  6
Continuous
100
AcDbLine
 10
2398.12252596061
 20
-1181.642562243848
 30
0.0
 11
2398.122525960613
 21
-1178.892562243845
 31
0.0
  0
LINE
  5
96
330
1F
100
AcDbEntity
  8
False Bits_ Plan_Pen_No__2
  6
Continuous
100
AcDbLine
 10
2430.637033051748
 20
-1183.407562243846
 30
0.0
 11
2430.63703305175
 21
-1177.127562243849
 31
0.0
  0
LINE
  5
97
330
1F
100
AcDbEntity
  8
False Bits_ Plan_Pen_No__2
  6
Continuous
100
AcDbLine
 10
2430.637033051748
 20
-1183.407562243846
 30
0.0
 11
2430.137033051748
 21
-1183.407562243846
 31
0.0
  0
LINE
  5
98
330
1F
100
AcDbEntity
  8
False Bits_ Plan_Pen_No__1
  6
Continuous
100
AcDbLine
 10
2402.622525960609
 20
-1181.642562243846
 30
0.0
 11
2402.622525960611
 21
-1178.892562243844
 31
0.0
  0
LINE
  5
99
330
1F
100
AcDbEntity
  8
False Bits_ Plan_Pen_No__1
  6
Continuous
100
AcDbLine
 10
2408.62252596061
 20
-1181.642562243847
 30
0.0
 11
2408.622525960609
 21
-1178.892562243844
 31
0.0
  0
LINE
  5
9A
330
1F
100
AcDbEntity
  8
False Bits_ Plan_Pen_No__1
  6
Continuous
100
AcDbLine
 10
2404.122525960611
 20
-1181.642562243846
 30
0.0
 11
2404.12252596061
 21
-1178.892562243846
 31
0.0
  0
LINE
  5
9B
330
1F
100
AcDbEntity
  8
False Bits_ Plan_Pen_No__1
  6
Continuous
100
AcDbLine
 10
2405.622525960611
 20
-1181.642562243846
 30
0.0
 11
2405.622525960611
 21
-1178.892562243846
 31
0.0
  0
LINE
  5
9C
330
1F
100
AcDbEntity
  8
False Bits_ Plan_Pen_No__1
  6
Continuous
100
AcDbLine
 10
2407.122525960609
 20
-1181.642562243846
 30
0.0
 11
2407.122525960612
 21
-1178.892562243844
 31
0.0
  0
LINE
  5
9D
330
1F
100
AcDbEntity
  8
Documentation_ Floor_Pen_No__2
  6
Continuous
100
AcDbLine
 10
2431.637033051749
 20
-1180.267562243847
 30
0.0
 11
2430.637033051749
 21
-1180.267562243847
 31
0.0
  0
LINE
  5
9E
330
1F
100
AcDbEntity
  8
False Bits_ Plan_Pen_No__1
  6
Continuous
100
AcDbLine
 10
2363.62252596061
 20
-1181.642562243847
 30
0.0
 11
2363.622525960611
 21
-1178.892562243847
 31
0.0
  0
LINE
  5
9F
330
1F
100
AcDbEntity
  8
False Bits_ Plan_Pen_No__1
  6
Continuous
100
AcDbLine
 10
2396.622525960612
 20
-1181.642562243847
 30
0.0
 11
2396.622525960612
 21
-1178.892562243847
 31
0.0
  0
LINE
  5
A0
330
1F
100
AcDbEntity
  8
False Bits_ Plan_Pen_No__1
  6
Continuous
100
AcDbLine
 10
2387.622525960609
 20
-1181.642562243847
 30
0.0
 11
2387.622525960609
 21
-1178.892562243847
 31
0.0
  0
LINE
  5
A1
330
1F
100
AcDbEntity
  8
False Bits_ Plan_Pen_No__1
  6
Continuous
100
AcDbLine
 10
2386.122525960612
 20
-1181.642562243846
 30
0.0
 11
2386.122525960611
 21
-1178.892562243847
 31
0.0
  0
LINE
  5
A2
330
1F
100
AcDbEntity
  8
False Bits_ Plan_Pen_No__2
  6
Continuous
100
AcDbLine
 10
2430.137033051748
 20
-1183.407562243846
 30
0.0
 11
2430.13703305175
 21
-1177.127562243848
 31
0.0
  0
LINE
  5
A3
330
1F
100
AcDbEntity
  8
False Bits_ Plan_Pen_No__1
  6
Continuous
100
AcDbLine
 10
2389.122525960611
 20
-1181.642562243847
 30
0.0
 11
2389.12252596061
 21
-1178.892562243845
 31
0.0
  0
LINE
  5
A4
330
1F
100
AcDbEntity
  8
False Bits_ Plan_Pen_No__1
  6
Continuous
100
AcDbLine
 10
2390.622525960612
 20
-1181.642562243847
 30
0.0
 11
2390.622525960611
 21
-1178.892562243847
 31
0.0
  0
LINE
  5
A5
330
1F
100
AcDbEntity
  8
False Bits_ Plan_Pen_No__2
  6
Continuous
100
AcDbLine
 10
2430.13703305175
 20
-1177.127562243848
 30
0.0
 11
2430.63703305175
 21
-1177.127562243849
 31
0.0
  0
LINE
  5
A6
330
1F
100
AcDbEntity
  8
False Bits_ Plan_Pen_No__1
  6
Continuous
100
AcDbLine
 10
2401.122525960609
 20
-1181.642562243846
 30
0.0
 11
2401.122525960611
 21
-1178.892562243846
 31
0.0
  0
LINE
  5
A7
330
1F
100
AcDbEntity
  8
False Bits_ Plan_Pen_No__2
  6
Continuous
100
AcDbLine
 10
2355.137033051748
 20
-1180.267562243847
 30
0.0
 11
2357.622525960611
 21
-1181.842562243849
 31
0.0
  0
LINE
  5
A8
330
1F
100
AcDbEntity
  8
Documentation_ Floor_Pen_No__4
  6
Continuous
100
AcDbLine
 10
2420.137033051748
 20
-1321.54979187406
 30
0.0
 11
2420.137033051748
 21
-1311.549791874061
 31
0.0
  0
LINE
  5
A9
330
1F
100
AcDbEntity
  8
Documentation_ Floor_Pen_No__4
  6
Continuous
100
AcDbLine
 10
2420.137033051748
 20
-1311.549791874061
 30
0.0
 11
2417.137033051748
 21
-1311.549791874061
 31
0.0
  0
LINE
  5
AA
330
1F
100
AcDbEntity
  8
Documentation_ Floor_Pen_No__4
  6
Continuous
100
AcDbLine
 10
2417.137033051748
 20
-1311.549791874061
 30
0.0
 11
2417.137033051748
 21
-1305.549791874061
 31
0.0
  0
LINE
  5
AB
330
1F
100
AcDbEntity
  8
Documentation_ Floor_Pen_No__4
  6
Continuous
100
AcDbLine
 10
2417.137033051748
 20
-1305.549791874061
 30
0.0
 11
2420.137033051748
 21
-1305.549791874061
 31
0.0
  0
LINE
  5
AC
330
1F
100
AcDbEntity
  8
Documentation_ Floor_Pen_No__4
  6
Continuous
100
AcDbLine
 10
2420.137033051748
 20
-1305.549791874061
 30
0.0
 11
2420.137033051748
 21
-1296.549791874062
 31
0.0
  0
LINE
  5
AD
330
1F
100
AcDbEntity
  8
Documentation_ Floor_Pen_No__4
  6
Continuous
100
AcDbLine
 10
2420.137033051748
 20
-1296.549791874062
 30
0.0
 11
2410.137033051749
 21
-1296.549791874062
 31
0.0
  0
LINE
  5
AE
330
1F
100
AcDbEntity
  8
Documentation_ Floor_Pen_No__4
  6
Continuous
100
AcDbLine
 10
2410.137033051749
 20
-1296.549791874062
 30
0.0
 11
2410.137033051749
 21
-1346.549791874059
 31
0.0
  0
LINE
  5
AF
330
1F
100
AcDbEntity
  8
Documentation_ Floor_Pen_No__4
  6
Continuous
100
AcDbLine
 10
2410.137033051749
 20
-1346.549791874059
 30
0.0
 11
2411.000723416135
 21
-1347.125585450317
 31
0.0
  0
LINE
  5
B0
330
1F
100
AcDbEntity
  8
Documentation_ Floor_Pen_No__4
  6
Continuous
100
AcDbLine
 10
2430.137033051748
 20
-1347.125585450317
 30
0.0
 11
2430.137033051748
 21
-1346.549791874068
 31
0.0
  0
INSERT
  5
B8
330
1F
100
AcDbEntity
  8
Documentation_ Floor
  6
Continuous
100
AcDbBlockReference
  2
PolyLine_1
 10
2280.529783473665
 20
-1217.194082407566
 30
0.0
  0
INSERT
  5
BF
330
1F
100
AcDbEntity
  8
Documentation_ Floor
  6
Continuous
100
AcDbBlockReference
  2
PolyLine_2
 10
2262.730347147563
 20
-1118.677698807787
 30
0.0
  0
INSERT
  5
C6
330
1F
100
AcDbEntity
  8
Documentation_ Floor
  6
Continuous
100
AcDbBlockReference
  2
PolyLine_3
 10
2521.433123354677
 20
-1071.217079920084
 30
0.0
  0
INSERT
  5
CD
330
1F
100
AcDbEntity
  8
Documentation_ Floor
  6
Continuous
100
AcDbBlockReference
  2
PolyLine_4
 10
2369.006397535619
 20
-1099.510667618945
 30
0.0
  0
INSERT
  5
D4
330
1F
100
AcDbEntity
  8
Documentation_ Floor
  6
Continuous
100
AcDbBlockReference
  2
PolyLine_5
 10
2462.137033051748
 20
-1246.809526194859
 30
0.0
  0
INSERT
  5
DB
330
1F
100
AcDbEntity
  8
Documentation_ Floor
  6
Continuous
100
AcDbBlockReference
  2
PolyLine_6
 10
2462.137033051748
 20
-1262.518038587519
 30
0.0
  0
INSERT
  5
E2
330
1F
100
AcDbEntity
  8
Documentation_ Floor
  6
Continuous
100
AcDbBlockReference
  2
PolyLine_7
 10
2462.137033051748
 20
-1278.117718617876
 30
0.0
  0
INSERT
  5
E9
330
1F
100
AcDbEntity
  8
Documentation_ Floor
  6
Continuous
100
AcDbBlockReference
  2
PolyLine_8
 10
2462.137033051748
 20
-1293.800731857881
 30
0.0
  0
INSERT
  5
F0
330
1F
100
AcDbEntity
  8
Documentation_ Floor
  6
Continuous
100
AcDbBlockReference
  2
PolyLine_9
 10
2461.651370477323
 20
-1161.374057474788
 30
0.0
  0
INSERT
  5
F7
330
1F
100
AcDbEntity
  8
Documentation_ Floor
  6
Continuous
100
AcDbBlockReference
  2
PolyLine_10
 10
2462.287396047231
 20
-1130.859099069153
 30
0.0
  0
ARC
  5
F8
330
1F
100
AcDbEntity
  8
0_Pen_No__2
  6
Continuous
100
AcDbCircle
 10
2386.137033051747
 20
-1125.049791874062
 30
0.0
 40
4.000000000001335
100
AcDbArc
 50
0.0
 51
90.0
  0
ARC
  5
F9
330
1F
100
AcDbEntity
  8
0_Pen_No__2
  6
Continuous
100
AcDbCircle
 10
2386.137033051705
 20
-1125.049791874062
 30
0.0
 40
1.999999999998891
100
AcDbArc
 50
0.0
 51
90.0
  0
ARC
  5
FA
330
1F
100
AcDbEntity
  8
0_Pen_No__2
  6
Continuous
100
AcDbCircle
 10
2296.137033051772
 20
-1125.049791874062
 30
0.0
 40
1.999999999998891
100
AcDbArc
 50
90.0
 51
180.0
  0
ARC
  5
FB
330
1F
100
AcDbEntity
  8
Documentation_ Floor_Pen_No__1
  6
Continuous
100
AcDbCircle
 10
2414.35498878739
 20
-1109.996216264653
 30
0.0
 40
9.99999999999801
100
AcDbArc
 50
255.5224878140421
 51
284.4775121859185
  0
ARC
  5
FC
330
1F
100
AcDbEntity
  8
Documentation_ Floor_Pen_No__1
  6
Continuous
100
AcDbCircle
 10
2422.537447152908
 20
-1113.496216264649
 30
0.0
 40
9.99999999999801
100
AcDbArc
 50
165.5224878140421
 51
194.4775121859184
  0
ARC
  5
FD
330
1F
100
AcDbEntity
  8
Documentation_ Floor_Pen_No__1
  6
Continuous
100
AcDbCircle
 10
2406.172530421873
 20
-1113.496216264649
 30
0.0
 40
9.99999999999801
100
AcDbArc
 50
345.5224878140815
 51
14.47751218595789
  0
ARC
  5
FE
330
1F
100
AcDbEntity
  8
Documentation_ Floor_Pen_No__4
  6
Continuous
100
AcDbCircle
 10
2456.387033051767
 20
-1321.54979187406
 30
0.0
 40
36.25000000001905
100
AcDbArc
 50
180.0
 51
223.6028189726912
  0
DIMENSION
  5
10B
330
1F
100
AcDbEntity
  8
Documentation_ Floor
  6
Continuous
100
AcDbDimension
280
     0
  2
*D10
 10
2445.347889152413
 20
-1125.049791874062
 30
0.0
 11
2441.847889174765
 21
-1142.523004206443
 31
0.0
 70
   160
  1
<>
 71
     5
 42
-1.0
 73
     0
 74
     0
 75
     0
 53
90.0
  3
GENERATED_STYLE__1
100
AcDbAlignedDimension
 13
2431.137033051748
 23
-1159.996216264649
 33
0.0
 14
2431.137033051748
 24
-1125.049791874062
 34
0.0
 50
90.0
100
AcDbRotatedDimension
  0
MTEXT
  5
112
330
1F
100
AcDbEntity
  8
Documentation_ Floor_Pen_No__1
  6
Continuous
100
AcDbMText
 10
2464.137033051748
 20
-1275.783305979248
 30
0.0
 40
5.0
 41
0.0
 46
0.0
 71
     1
 72
     1
  1
{Cavity batten\P}
  7
GENERATED_STYLE_1
 73
     1
 44
1.0
  0
MTEXT
  5
113
330
1F
100
AcDbEntity
  8
Documentation_ Floor_Pen_No__1
  6
Continuous
100
AcDbMText
 10
2464.137033051748
 20
-1260.068994287408
 30
0.0
 40
5.0
 41
0.0
 46
0.0
 71
     1
 72
     1
  1
{Building wrap\P}
  7
GENERATED_STYLE_1
 73
     1
 44
1.0
  0
MTEXT
  5
114
330
1F
100
AcDbEntity
  8
Documentation_ Floor_Pen_No__1
  6
Continuous
100
AcDbMText
 10
2464.137033051748
 20
-1244.354699381295
 30
0.0
 40
5.0
 41
0.0
 46
0.0
 71
     1
 72
     1
  1
{Wall framing\P}
  7
GENERATED_STYLE_1
 73
     1
 44
1.0
  0
MTEXT
  5
115
330
1F
100
AcDbEntity
  8
Documentation_ Floor_Pen_No__1
  6
Continuous
100
AcDbMText
 10
2224.355887181163
 20
-1214.363061560355
 30
0.0
 40
4.999999999999999
 41
0.0
 46
0.0
 71
     1
 72
     1
  1
{Internal wall lining\P}
  7
GENERATED_STYLE_1
 73
     1
 44
1.0
  0
MTEXT
  5
116
330
1F
100
AcDbEntity
  8
Documentation_ Floor_Pen_No__1
  6
Continuous
100
AcDbMText
 10
2221.301324513207
 20
-1115.351522601773
 30
0.0
 40
5.0
 41
0.0
 46
0.0
 71
     1
 72
     1
  1
{Air seal over\PPEF backing rod\P}
  7
GENERATED_STYLE_1
 73
     1
 44
1.0
  0
MTEXT
  5
117
330
1F
100
AcDbEntity
  8
0_Pen_No__7
  6
Continuous
100
AcDbMText
 10
2317.312702264679
 20
-1066.399309602827
 30
0.0
 40
5.0
 41
0.0
 46
0.0
 71
     1
 72
     1
  1
{Building wrap dressed into\Popening with flashing tape\Pinstalled over wrap along sill\Pand 100mm up jamb\P}
  7
GENERATED_STYLE_1
 73
     1
 44
1.0
  0
MTEXT
  5
119
330
1F
100
AcDbEntity
  8
Documentation_ Floor_Pen_No__7
  6
Continuous
100
AcDbMText
 10
2523.821161251856
 20
-1068.719385335183
 30
0.0
 40
5.0
 41
0.0
 46
0.0
 71
     1
 72
     1
  1
{Meter box\P}
  7
GENERATED_STYLE_1
 73
     1
 44
1.0
  0
MTEXT
  5
11B
330
1F
100
AcDbEntity
  8
Documentation_ Floor_Pen_No__7
  6
Continuous
100
AcDbMText
 10
2464.137033051748
 20
-1158.476361990991
 30
0.0
 40
4.999999999999999
 41
0.0
 46
0.0
 71
     1
 72
     1
  1
{0.55mm galv steel sill angle\Pseal and rivet to meter box\P35mm min. cover to weatherboard\P}
  7
GENERATED_STYLE_1
 73
     1
 44
1.0
  0
MTEXT
  5
11C
330
1F
100
AcDbEntity
  8
Documentation_ Floor_Pen_No__1
  6
Continuous
100
AcDbMText
 10
2464.137033051748
 20
-1127.047770448649
 30
0.0
 40
5.0
 41
0.0
 46
0.0
 71
     1
 72
     1
  1
{70x3.2mm annular groove nail\Pthrough face of weatherboard\P}
  7
GENERATED_STYLE_1
 73
     1
 44
1.0
  0
MTEXT
  5
11D
330
1F
100
AcDbEntity
  8
Documentation_ Floor_Pen_No__1
  6
Continuous
100
AcDbMText
 10
2464.137033051748
 20
-1291.497617671089
 30
0.0
 40
5.0
 41
0.0
 46
0.0
 71
     1
 72
     1
  1
Abodo rusticated weatherboard
  7
GENERATED_STYLE_1
 73
     1
 44
1.0
  0
VIEWPORT
  5
676
102
{ACAD_XDICTIONARY
360
677
102
}
330
675
100
AcDbEntity
 67
     1
  8
0
100
AcDbViewport
 10
142.6296607489746
 20
48.59798687009905
 30
0.0
 40
601.8416862071735
 41
286.9992382624955
 68
     1
 69
     1
 12
142.6296607489746
 22
48.59798687009905
 13
0.0
 23
0.0
 14
10.0
 24
10.0
 15
10.0
 25
10.0
 16
0.0
 26
0.0
 36
1.0
 17
0.0
 27
0.0
 37
0.0
 42
50.0
 43
0.0
 44
0.0
 45
286.9992382624955
 50
0.0
 51
0.0
 72
  1000
 90
   819232
  1

281
     0
 71
     1
 74
     0
110
0.0
120
0.0
130
0.0
111
1.0
121
0.0
131
0.0
112
0.0
122
1.0
132
0.0
 79
     0
146
0.0
170
     0
 61
     5
348
2F
292
     1
282
     1
141
0.0
142
0.0
 63
   250
421
  3355443
  0
LINE
  5
679
330
675
100
AcDbEntity
 67
     1
  8
0
100
AcDbLine
 10
3.15713315299277
 20
2.209414789719573
 30
0.0
 11
200.3709444587095
 21
2.209414789719573
 31
0.0
  0
LINE
  5
67A
330
675
100
AcDbEntity
 67
     1
  8
0
100
AcDbLine
 10
200.3709444587095
 20
2.209414789719573
 30
0.0
 11
200.3709444587095
 21
287.7561714473947
 31
0.0
  0
LINE
  5
67B
330
675
100
AcDbEntity
 67
     1
  8
0
100
AcDbLine
 10
200.3709444587095
 20
287.7561714473947
 30
0.0
 11
3.15713315299277
 21
287.7561714473947
 31
0.0
  0
LINE
  5
67C
330
675
100
AcDbEntity
 67
     1
  8
0
100
AcDbLine
 10
3.15713315299277
 20
287.7561714473947
 30
0.0
 11
3.15713315299277
 21
2.209414789719573
 31
0.0
  0
LINE
  5
67D
330
675
100
AcDbEntity
 67
     1
  8
0
100
AcDbLine
 10
3.15713315299277
 20
29.56659624953767
 30
0.0
 11
200.3709444587095
 21
29.56659624953767
 31
0.0
  0
LINE
  5
67E
330
675
100
AcDbEntity
 67
     1
  8
0
100
AcDbLine
 10
200.3531650465694
 20
16.39078189578748
 30
0.0
 11
3.15713315299277
 21
16.39078189578748
 31
0.0
  0
LINE
  5
67F
330
675
100
AcDbEntity
 67
     1
  8
0
100
AcDbLine
 10
149.4136253158573
 20
29.47846116364366
 30
0.0
 11
149.4136253158573
 21
2.262499034537484
 31
0.0
  0
LINE
  5
680
330
675
100
AcDbEntity
 67
     1
  8
0
100
AcDbLine
 10
176.2945725219253
 20
29.47846116364366
 30
0.0
 11
176.2945725219253
 21
16.39078189578748
 31
0.0
  0
MTEXT
  5
681
102
{ACAD_XDICTIONARY
360
682
102
}
330
675
100
AcDbEntity
 67
     1
  8
0
100
AcDbMText
 10
3.15713315299277
 20
285.3102914378114
 30
0.0
 40
3.0
 41
47.04732135723043
 46
0.0
 71
     1
 72
     5
  3
\pi-4.5,l9;{\fCambria|b0|i0|c0|p18;\H0.66667x;1.^IWeatherboards must be coated with at least one coat all sides prior to fixing.    \P2.^IFixing points must be pre-drilled minimum 1mm smaller than the fastener.\P3.^ICut ends and exposed timber must be s
  1
ealed with an approved coating or end seal.}
 73
     1
 44
1.0
1001
ACAD
1000
ACAD_MTEXT_COLUMN_INFO_BEGIN
1070
    75
1070
     2
1070
    79
1070
     0
1070
    76
1070
     1
1070
    78
1070
     0
1070
    48
1040
47.04732135723043
1070
    49
1040
12.5
1070
    50
1070
     1
1040
0.0
1000
ACAD_MTEXT_COLUMN_INFO_END
  0
MTEXT
  5
683
102
{ACAD_XDICTIONARY
360
684
102
}
330
675
100
AcDbEntity
 67
     1
  8
0
100
AcDbMText
 10
42.55398918694436
 20
14.38432073487468
 30
0.0
 40
1.7
 41
75.82908797969011
 46
0.0
 71
     1
 72
     5
  1
{\fCambria|b0|i0|c0|p18;© 2013 Abodo Wood Ltd, PO Box 8961, Symonds St, Auckland 1052\PPh 64 9) 302 9555 Fx 64 9) 302 9550\H1.6364x; \H0.6111x;\P\L\C5;www.abodo.co.nz\l\C256; \H1.4221x; }
 73
     1
 44
1.0
1001
ACAD
1000
ACAD_MTEXT_COLUMN_INFO_BEGIN
1070
    75
1070
     2
1070
    79
1070
     0
1070
    76
1070
     1
1070
    78
1070
     0
1070
    48
1040
75.82908797969011
1070
    49
1040
12.5
1070
    50
1070
     1
1040
0.0
1000
ACAD_MTEXT_COLUMN_INFO_END
  0
MTEXT
  5
685
102
{ACAD_XDICTIONARY
360
686
102
}
330
675
100
AcDbEntity
 67
     1
  8
0
100
AcDbMText
 10
153.3071631151076
 20
13.80142210902022
 30
0.0
 40
3.0
 41
44.00734591470086
 46
0.0
 71
     1
 72
     5
  1
{\fCambria|b0|i0|c0|p18;\H0.66667x;Drawing No.\P\H1.5x;R.C.F.53\H1.2584x; }
 73
     1
 44
1.0
1001
ACAD
1000
ACAD_MTEXT_COLUMN_INFO_BEGIN
1070
    75
1070
     2
1070
    79
1070
     0
1070
    76
1070
     1
1070
    78
1070
     0
1070
    48
1040
44.00734591470086
1070
    49
1040
12.5
1070
    50
1070
     1
1040
0.0
1000
ACAD_MTEXT_COLUMN_INFO_END
  0
MTEXT
  5
687
102
{ACAD_XDICTIONARY
360
688
102
}
330
675
100
AcDbEntity
 67
     1
  8
0
100
AcDbMText
 10
153.294225110709
 20
27.56502405230072
 30
0.0
 40
3.0
 41
18.47308919738998
 46
0.0
 71
     1
 72
     5
  1
{\fCambria|b0|i0|c0|p18;\H0.66667x;Scale\P\H1.5x;1:2\H1.2283x; }
 73
     1
 44
1.0
1001
ACAD
1000
ACAD_MTEXT_COLUMN_INFO_BEGIN
1070
    75
1070
     2
1070
    79
1070
     0
1070
    76
1070
     1
1070
    78
1070
     0
1070
    48
1040
18.47308919738998
1070
    49
1040
12.5
1070
    50
1070
     1
1040
0.0
1000
ACAD_MTEXT_COLUMN_INFO_END
  0
MTEXT
  5
689
102
{ACAD_XDICTIONARY
360
68A
102
}
330
675
100
AcDbEntity
 67
     1
  8
0
100
AcDbMText
 10
178.7052816359999
 20
27.55909313553877
 30
0.0
 40
3.0
 41
18.47308919738998
 46
0.0
 71
     1
 72
     5
  1
{\fCambria|b0|i0|c0|p18;\H0.66667x;Date\P\H1.5x;3/10/13\H1.2584x; }
 73
     1
 44
1.0
1001
ACAD
1000
ACAD_MTEXT_COLUMN_INFO_BEGIN
1070
    75
1070
     2
1070
    79
1070
     0
1070
    76
1070
     1
1070
    78
1070
     0
1070
    48
1040
18.47308919738998
1070
    49
1040
12.5
1070
    50
1070
     1
1040
0.0
1000
ACAD_MTEXT_COLUMN_INFO_END
  0
MTEXT
  5
68B
102
{ACAD_XDICTIONARY
360
68C
102
}
330
675
100
AcDbEntity
 67
     1
  8
0
100
AcDbMText
 10
3.157133152992769
 20
26.63441117426942
 30
0.0
 40
3.0
 41
146.2564921628645
 46
0.0
 71
     1
 72
     5
  1
\pi48.925;{\fCambria|b0|i0|c0|p18;Rusticated Weatherboard\P\pi64.483;\H0.66667x;Meter Box Sill\H1.5498x; }
 73
     1
 44
1.0
1001
ACAD
1000
ACAD_MTEXT_COLUMN_INFO_BEGIN
1070
    75
1070
     2
1070
    79
1070
     0
1070
    76
1070
     1
1070
    78
1070
     0
1070
    48
1040
146.2564921628645
1070
    49
1040
12.5
1070
    50
1070
     1
1040
13.17581435375018
1000
ACAD_MTEXT_COLUMN_INFO_END
  0
VIEWPORT
  5
68D
102
{ACAD_XDICTIONARY
360
68E
102
}
330
675
100
AcDbEntity
 67
     1
  8
0
100
AcDbViewport
 10
101.7640388058511
 20
158.6613838484662
 30
0.0
 40
197.2138113057167
 41
258.189575197857
 68
     2
 69
     2
 12
1292.329096414487
 22
-2596.215165725654
 13
0.0
 23
0.0
 14
10.0
 24
10.0
 15
10.0
 25
10.0
 16
-0.0000000000002274
 26
0.0
 36
1203.379210980805
 17
1101.376386191091
 27
1457.314650658801
 37
0.0
 42
50.0
 43
0.0
 44
0.0
 45
516.3791495031798
 50
0.0
 51
0.0
 72
  1000
 90
   819808
  1

281
     0
 71
     1
 74
     0
110
0.0
120
0.0
130
0.0
111
1.0
121
0.0
131
0.0
112
0.0
122
1.0
132
0.0
 79
     0
146
0.0
170
     0
 61
     5
348
2F
292
     1
282
     1
141
0.0
142
0.0
 63
   250
421
  3355443
  0
ENDSEC
  0
SECTION
  2
OBJECTS
  0
DICTIONARY
  5
C
330
0
100
AcDbDictionary
281
     1
  3
ACAD_CIP_PREVIOUS_PRODUCT_INFO
350
1AF
  3
ACAD_COLOR
350
1A3
  3
ACAD_DETAILVIEWSTYLE
350
1A9
  3
ACAD_GROUP
350
D
  3
ACAD_IMAGE_DICT
350
696
  3
ACAD_IMAGE_VARS
350
6B1
  3
ACAD_LAYOUT
350
1A
  3
ACAD_MATERIAL
350
3B
  3
ACAD_MLEADERSTYLE
350
196
  3
ACAD_MLINESTYLE
350
17
  3
ACAD_PLOTSETTINGS
350
19
  3
ACAD_PLOTSTYLENAME
350
E
  3
ACAD_SCALELIST
350
121
  3
ACAD_SECTIONVIEWSTYLE
350
1A6
  3
ACAD_TABLESTYLE
350
195
  3
ACAD_VISUALSTYLE
350
2A
  3
ACDB_RECOMPOSE_DATA
350
79D
  3
AcDbVariableDictionary
350
16D
  3
WATERMARKS
350
143
  0
DICTIONARY
  5
672
330
2
100
AcDbDictionary
280
     1
281
     1
  3
ACAD_LAYERSTATES
360
673
  0
DICTIONARY
  5
6B4
330
10
100
AcDbDictionary
280
     1
281
     1
  3
ADSK_XREC_LAYER_RECONCILED
360
6B5
  0
DICTIONARY
  5
6B6
330
40
100
AcDbDictionary
280
     1
281
     1
  3
ADSK_XREC_LAYER_RECONCILED
360
6B7
  0
DICTIONARY
  5
6B8
330
42
100
AcDbDictionary
280
     1
281
     1
  3
ADSK_XREC_LAYER_RECONCILED
360
6B9
  0
DICTIONARY
  5
6BA
330
43
100
AcDbDictionary
280
     1
281
     1
  3
ADSK_XREC_LAYER_RECONCILED
360
6BB
  0
DICTIONARY
  5
6BC
330
46
100
AcDbDictionary
280
     1
281
     1
  3
ADSK_XREC_LAYER_RECONCILED
360
6BD
  0
DICTIONARY
  5
6BE
330
48
100
AcDbDictionary
280
     1
281
     1
  3
ADSK_XREC_LAYER_RECONCILED
360
6BF
  0
DICTIONARY
  5
6C0
330
4A
100
AcDbDictionary
280
     1
281
     1
  3
ADSK_XREC_LAYER_RECONCILED
360
6C1
  0
DICTIONARY
  5
6C2
330
4B
100
AcDbDictionary
280
     1
281
     1
  3
ADSK_XREC_LAYER_RECONCILED
360
6C3
  0
DICTIONARY
  5
6C4
330
4F
100
AcDbDictionary
280
     1
281
     1
  3
ADSK_XREC_LAYER_RECONCILED
360
6C5
  0
DICTIONARY
  5
6C6
330
55
100
AcDbDictionary
280
     1
281
     1
  3
ADSK_XREC_LAYER_RECONCILED
360
6C7
  0
DICTIONARY
  5
6C8
330
5C
100
AcDbDictionary
280
     1
281
     1
  3
ADSK_XREC_LAYER_RECONCILED
360
6C9
  0
DICTIONARY
  5
6CA
330
65
100
AcDbDictionary
280
     1
281
     1
  3
ADSK_XREC_LAYER_RECONCILED
360
6CB
  0
DICTIONARY
  5
6CC
330
67
100
AcDbDictionary
280
     1
281
     1
  3
ADSK_XREC_LAYER_RECONCILED
360
6CD
  0
DICTIONARY
  5
6CE
330
71
100
AcDbDictionary
280
     1
281
     1
  3
ADSK_XREC_LAYER_RECONCILED
360
6CF
  0
DICTIONARY
  5
6D0
330
77
100
AcDbDictionary
280
     1
281
     1
  3
ADSK_XREC_LAYER_RECONCILED
360
6D1
  0
DICTIONARY
  5
6D2
330
79
100
AcDbDictionary
280
     1
281
     1
  3
ADSK_XREC_LAYER_RECONCILED
360
6D3
  0
DICTIONARY
  5
6D4
330
81
100
AcDbDictionary
280
     1
281
     1
  3
ADSK_XREC_LAYER_RECONCILED
360
6D5
  0
DICTIONARY
  5
6D6
330
B6
100
AcDbDictionary
280
     1
281
     1
  3
ADSK_XREC_LAYER_RECONCILED
360
6D7
  0
DICTIONARY
  5
6D8
330
118
100
AcDbDictionary
280
     1
281
     1
  3
ADSK_XREC_LAYER_RECONCILED
360
6D9
  0
DICTIONARY
  5
6DA
330
11A
100
AcDbDictionary
280
     1
281
     1
  3
ADSK_XREC_LAYER_RECONCILED
360
6DB
  0
DICTIONARY
  5
6DC
330
660
100
AcDbDictionary
280
     1
281
     1
  3
ADSK_XREC_LAYER_RECONCILED
360
6DD
  0
DICTIONARY
  5
693
330
675
100
AcDbDictionary
280
     1
281
     1
  0
DICTIONARY
  5
677
330
676
100
AcDbDictionary
280
     1
281
     1
  3
ASDK_XREC_ANNOTATION_SCALE_INFO
360
678
  0
DICTIONARY
  5
682
330
681
100
AcDbDictionary
280
     1
281
     1
  3
ACAD_MTEXT_2008_RT
360
797
  0
DICTIONARY
  5
684
330
683
100
AcDbDictionary
280
     1
281
     1
  3
ACAD_MTEXT_2008_RT
360
798
  0
DICTIONARY
  5
686
330
685
100
AcDbDictionary
280
     1
281
     1
  3
ACAD_MTEXT_2008_RT
360
799
  0
DICTIONARY
  5
688
330
687
100
AcDbDictionary
280
     1
281
     1
  3
ACAD_MTEXT_2008_RT
360
79A
  0
DICTIONARY
  5
68A
330
689
100
AcDbDictionary
280
     1
281
     1
  3
ACAD_MTEXT_2008_RT
360
79B
  0
DICTIONARY
  5
68C
330
68B
100
AcDbDictionary
280
     1
281
     1
  3
ACAD_MTEXT_2008_RT
360
79C
  0
DICTIONARY
  5
68E
330
68D
100
AcDbDictionary
280
     1
281
     1
  3
ASDK_XREC_ANNOTATION_SCALE_INFO
360
68F
  0
XRECORD
  5
1AF
102
{ACAD_REACTORS
330
C
102
}
330
C
100
AcDbXrecord
280
     1
300
ACD
300
2014
300
ACD_F_S
  0
DICTIONARY
  5
1A3
102
{ACAD_REACTORS
330
C
102
}
330
C
100
AcDbDictionary
281
     1
  0
DICTIONARY
  5
1A9
102
{ACAD_REACTORS
330
C
102
}
330
C
100
AcDbDictionary
281
     1
  3
Imperial24
350
1AA
  0
DICTIONARY
  5
D
102
{ACAD_REACTORS
330
C
102
}
330
C
100
AcDbDictionary
281
     1
  0
DICTIONARY
  5
696
102
{ACAD_REACTORS
330
C
102
}
330
C
100
AcDbDictionary
281
     1
  3
Badge-CM40070
350
697
  3
elements cladding logo
350
698
  3
Elements_Brandmark_RGB
350
699
  3
Elements_Brandmark_RGB-01
350
69A
  0
RASTERVARIABLES
  5
6B1
102
{ACAD_REACTORS
330
C
102
}
330
C
100
AcDbRasterVariables
 90
        0
 70
     0
 71
     1
 72
     1
  0
DICTIONARY
  5
1A
102
{ACAD_REACTORS
330
C
102
}
330
C
100
AcDbDictionary
281
     1
  3
ABODO Template
350
674
  3
Model
350
22
  0
DICTIONARY
  5
3B
102
{ACAD_REACTORS
330
C
102
}
330
C
100
AcDbDictionary
281
     1
  3
ByBlock
350
3D
  3
ByLayer
350
3C
  3
Global
350
3E
  0
DICTIONARY
  5
196
102
{ACAD_REACTORS
330
C
102
}
330
C
100
AcDbDictionary
281
     1
  3
Standard
350
1A5
  0
DICTIONARY
  5
17
102
{ACAD_REACTORS
330
C
102
}
330
C
100
AcDbDictionary
281
     1
  3
Standard
350
18
  0
DICTIONARY
  5
19
102
{ACAD_REACTORS
330
C
102
}
330
C
100
AcDbDictionary
281
     1
  0
ACDBDICTIONARYWDFLT
  5
E
102
{ACAD_REACTORS
330
C
102
}
330
C
100
AcDbDictionary
281
     1
  3
Normal
350
F
100
AcDbDictionaryWithDefault
340
F
  0
DICTIONARY
  5
121
102
{ACAD_REACTORS
330
C
102
}
330
C
100
AcDbDictionary
281
     1
  3
A0
350
122
  3
A1
350
123
  3
A2
350
124
  3
A3
350
125
  3
A4
350
126
  3
A5
350
127
  3
A6
350
128
  3
A7
350
129
  3
A8
350
12A
  3
A9
350
12B
  3
B0
350
12C
  3
B1
350
12D
  3
B2
350
12E
  3
B3
350
12F
  3
B4
350
130
  3
B5
350
131
  3
B6
350
132
  3
B7
350
133
  3
B8
350
134
  3
B9
350
135
  3
C0
350
136
  3
C1
350
137
  3
C2
350
138
  3
C3
350
139
  3
C4
350
13A
  3
C5
350
13B
  3
C6
350
13C
  3
C7
350
13D
  3
C8
350
13E
  3
C9
350
13F
  3
D0
350
140
  3
D1
350
141
  3
D2
350
142
  0
DICTIONARY
  5
1A6
102
{ACAD_REACTORS
330
C
102
}
330
C
100
AcDbDictionary
281
     1
  3
Imperial24
350
1A8
  0
DICTIONARY
  5
195
102
{ACAD_REACTORS
330
C
102
}
330
C
100
AcDbDictionary
281
     1
  3
Standard
350
1A4
  0
DICTIONARY
  5
2A
102
{ACAD_REACTORS
330
C
102
}
330
C
100
AcDbDictionary
281
     1
  3
2dWireframe
350
2F
  3
3D Hidden
350
31
  3
3dWireframe
350
30
  3
Basic
350
32
  3
Brighten
350
36
  3
ColorChange
350
3A
  3
Conceptual
350
34
  3
Dim
350
35
  3
EdgeColorOff
350
1A2
  3
Facepattern
350
39
  3
Flat
350
2B
  3
FlatWithEdges
350
2C
  3
Gouraud
350
2D
  3
GouraudWithEdges
350
2E
  3
Hidden
350
19A
  3
JitterOff
350
1A0
  3
Linepattern
350
38
  3
OverhangOff
350
1A1
  3
Realistic
350
33
  3
Shaded
350
19F
  3
Shaded with edges
350
19E
  3
Shades of Gray
350
19B
  3
Sketchy
350
19C
  3
Thicken
350
37
  3
Wireframe
350
199
  3
X-Ray
350
19D
  0
XRECORD
  5
79D
102
{ACAD_REACTORS
330
C
102
}
330
C
100
AcDbXrecord
280
     1
 90
        1
330
1A4
330
1A8
330
1AA
330
681
330
683
330
685
330
687
330
689
330
68B
  0
DICTIONARY
  5
16D
102
{ACAD_REACTORS
330
C
102
}
330
C
100
AcDbDictionary
281
     1
  3
CANNOSCALE
350
16E
  3
CMLEADERSTYLE
350
6EE
  3
CTABLESTYLE
350
6ED
  3
CVIEWDETAILSTYLE
350
6EF
  3
CVIEWSECTIONSTYLE
350
6F0
  3
LAYEREVAL
350
6F3
  3
LAYERNOTIFY
350
6F4
  3
LIGHTINGUNITS
350
6F2
  3
MSLTSCALE
350
6F1
  0
DICTIONARY
  5
143
102
{ACAD_REACTORS
330
C
102
}
330
C
100
AcDbDictionary
281
     1
  3
AC_WATERMARK
350
144
  0
DICTIONARY
  5
673
102
{ACAD_REACTORS
330
672
102
}
330
672
100
AcDbDictionary
281
     1
  0
XRECORD
  5
6B5
102
{ACAD_REACTORS
330
6B4
102
}
330
6B4
100
AcDbXrecord
280
     1
290
     1
  0
XRECORD
  5
6B7
102
{ACAD_REACTORS
330
6B6
102
}
330
6B6
100
AcDbXrecord
280
     1
290
     1
  0
XRECORD
  5
6B9
102
{ACAD_REACTORS
330
6B8
102
}
330
6B8
100
AcDbXrecord
280
     1
290
     1
  0
XRECORD
  5
6BB
102
{ACAD_REACTORS
330
6BA
102
}
330
6BA
100
AcDbXrecord
280
     1
290
     1
  0
XRECORD
  5
6BD
102
{ACAD_REACTORS
330
6BC
102
}
330
6BC
100
AcDbXrecord
280
     1
290
     1
  0
XRECORD
  5
6BF
102
{ACAD_REACTORS
330
6BE
102
}
330
6BE
100
AcDbXrecord
280
     1
290
     1
  0
XRECORD
  5
6C1
102
{ACAD_REACTORS
330
6C0
102
}
330
6C0
100
AcDbXrecord
280
     1
290
     1
  0
XRECORD
  5
6C3
102
{ACAD_REACTORS
330
6C2
102
}
330
6C2
100
AcDbXrecord
280
     1
290
     1
  0
XRECORD
  5
6C5
102
{ACAD_REACTORS
330
6C4
102
}
330
6C4
100
AcDbXrecord
280
     1
290
     1
  0
XRECORD
  5
6C7
102
{ACAD_REACTORS
330
6C6
102
}
330
6C6
100
AcDbXrecord
280
     1
290
     1
  0
XRECORD
  5
6C9
102
{ACAD_REACTORS
330
6C8
102
}
330
6C8
100
AcDbXrecord
280
     1
290
     1
  0
XRECORD
  5
6CB
102
{ACAD_REACTORS
330
6CA
102
}
330
6CA
100
AcDbXrecord
280
     1
290
     1
  0
XRECORD
  5
6CD
102
{ACAD_REACTORS
330
6CC
102
}
330
6CC
100
AcDbXrecord
280
     1
290
     1
  0
XRECORD
  5
6CF
102
{ACAD_REACTORS
330
6CE
102
}
330
6CE
100
AcDbXrecord
280
     1
290
     1
  0
XRECORD
  5
6D1
102
{ACAD_REACTORS
330
6D0
102
}
330
6D0
100
AcDbXrecord
280
     1
290
     1
  0
XRECORD
  5
6D3
102
{ACAD_REACTORS
330
6D2
102
}
330
6D2
100
AcDbXrecord
280
     1
290
     1
  0
XRECORD
  5
6D5
102
{ACAD_REACTORS
330
6D4
102
}
330
6D4
100
AcDbXrecord
280
     1
290
     1
  0
XRECORD
  5
6D7
102
{ACAD_REACTORS
330
6D6
102
}
330
6D6
100
AcDbXrecord
280
     1
290
     1
  0
XRECORD
  5
6D9
102
{ACAD_REACTORS
330
6D8
102
}
330
6D8
100
AcDbXrecord
280
     1
290
     1
  0
XRECORD
  5
6DB
102
{ACAD_REACTORS
330
6DA
102
}
330
6DA
100
AcDbXrecord
280
     1
290
     1
  0
XRECORD
  5
6DD
102
{ACAD_REACTORS
330
6DC
102
}
330
6DC
100
AcDbXrecord
280
     1
290
     1
  0
XRECORD
  5
678
102
{ACAD_REACTORS
330
677
102
}
330
677
100
AcDbXrecord
280
     1
 90
        1
340
122
  0
XRECORD
  5
797
102
{ACAD_REACTORS
330
682
102
}
330
682
100
AcDbXrecord
280
     1
 40
3933011.0
  1
\pxi-1.5,l3,a0.83333,sm1.15;{\fCambria|b0|i0|c0|p18;\H0.66667x;1.^IWeatherboards must be coated with at least one coat all sides prior to fixing.    \P2.^IFixing points must be pre-drilled minimum 1mm smaller than the fastener.\P3.^ICut ends and exposed
  1
 timber must be sealed with an approved coating or end seal.}
  0
XRECORD
  5
798
102
{ACAD_REACTORS
330
684
102
}
330
684
100
AcDbXrecord
280
     1
 40
1229739.0
  1
\pxa0.58824,sm1;{\fCambria|b0|i0|c0|p18;© 2013 Abodo Wood Ltd, PO Box 8961, Symonds St, Auckland 1052\PPh 64 9) 302 9555 Fx 64 9) 302 9550\P\L\C5;www.abodo.co.nz\l\C256; }
  0
XRECORD
  5
799
102
{ACAD_REACTORS
330
686
102
}
330
686
100
AcDbXrecord
280
     1
 40
204703.0
  1
\pxa0.33333,sm1;{\fCambria|b0|i0|c0|p18;\H0.66667x;Drawing No.\P\H1.5x;R.C.F.53}
  0
XRECORD
  5
79A
102
{ACAD_REACTORS
330
688
102
}
330
688
100
AcDbXrecord
280
     1
 40
150955.0
  1
\pxa0.33333,sm1;{\fCambria|b0|i0|c0|p18;\H0.66667x;Scale\P\pql;\H1.5x;1:2}
  0
XRECORD
  5
79B
102
{ACAD_REACTORS
330
68A
102
}
330
68A
100
AcDbXrecord
280
     1
 40
158517.0
  1
\pxa0.33333,sm1,ql;{\fCambria|b0|i0|c0|p18;\H0.66667x;Date\P\H1.5x;3/10/13}
  0
XRECORD
  5
79C
102
{ACAD_REACTORS
330
68C
102
}
330
68C
100
AcDbXrecord
280
     1
 40
458492.0
  1
\pxa0.33333,sm1,qc;{\fCambria|b0|i0|c0|p18;Rusticated Weatherboard\P\H0.66667x;Meter Box Sill}
  0
XRECORD
  5
68F
102
{ACAD_REACTORS
330
68E
102
}
330
68E
100
AcDbXrecord
280
     1
 90
        1
340
123
  0
ACDBDETAILVIEWSTYLE
  5
1AA
102
{ACAD_XDICTIONARY
360
795
102
}
102
{ACAD_REACTORS
330
1A9
102
}
330
1A9
100
AcDbModelDocViewStyle
 70
     0
  3
Imperial24
290
     0
100
AcDbDetailViewStyle
 70
     0
 71
     0
 90
        3
 71
     1
340
11
 62
   256
 40
0.24
340
0
 62
   256
 40
0.24
300

 40
0.36
280
     3
 71
     2
340
16
 90
       25
 62
   256
 71
     3
340
11
 62
   256
 40
0.24
 90
        1
 40
0.75
 90
        1
300
%<\AcVar ViewType \f "%tc1">% %<\AcVar ViewDetailId>%\PSCALE %<\AcVar ViewScale \f "%sn">%
 71
     4
340
16
 90
       25
 62
   256
340
16
 90
       25
 62
   256
280
     0
  0
IMAGEDEF
  5
697
102
{ACAD_REACTORS
330
696
102
}
330
696
100
AcDbRasterImageDef
 90
        0
  1
D:\ABODO Work\Badge-CM40070.png
 10
395.0
 20
452.0
 11
0.0846668360003387
 21
0.0846668360003387
280
     1
281
     2
  0
IMAGEDEF
  5
698
102
{ACAD_REACTORS
330
696
102
}
330
696
100
AcDbRasterImageDef
 90
        0
  1
D:\ABODO Work\elements cladding logo.jpg
 10
288.0
 20
106.0
 11
0.1154545454545454
 21
0.1154545454545454
280
     1
281
     5
  0
IMAGEDEF
  5
699
102
{ACAD_REACTORS
330
696
102
}
330
696
100
AcDbRasterImageDef
 90
        0
  1
.\Elements_Brandmark_RGB.jpg
 10
2649.0
 20
821.0
 11
0.0846666666666667
 21
0.0846666666666667
280
     1
281
     5
  0
IMAGEDEF
  5
69A
102
{ACAD_REACTORS
330
696
330
692
102
}
330
696
100
AcDbRasterImageDef
 90
        0
  1
C:\Users\efar021\Desktop\Elements_Brandmark_RGB-01.png
 10
2338.0
 20
504.0
 11
0.0846668360003387
 21
0.0846668360003387
280
     1
281
     2
  0
LAYOUT
  5
674
102
{ACAD_XDICTIONARY
360
76C
102
}
102
{ACAD_REACTORS
330
1A
102
}
330
1A
100
AcDbPlotSettings
  1

  2
Adobe PDF
  4
A4
  6

 40
3.174999952316284
 41
3.174999952316284
 42
3.175003051757812
 43
3.17498779296875
 44
209.9733276367187
 45
297.0318298339844
 46
0.0
 47
0.0
 48
0.0
 49
0.0
140
0.0
141
0.0
142
1.0
143
1.0
 70
   688
 72
     1
 73
     0
 74
     5
  7

 75
    16
147
1.0
 76
     0
 77
     2
 78
   300
148
0.0
149
0.0
100
AcDbLayout
  1
ABODO Template
 70
     1
 71
     1
 10
-3.174999952316284
 20
-3.174999952316284
 11
206.7983276844024
 21
293.8568298816681
 12
0.0
 22
0.0
 32
0.0
 14
3.15713315299277
 24
2.209414789719573
 34
0.0
 15
200.3709444587095
 25
287.7561714473947
 35
0.0
146
0.0
 13
0.0
 23
0.0
 33
0.0
 16
1.0
 26
0.0
 36
0.0
 17
0.0
 27
1.0
 37
0.0
 76
     0
330
675
331
676
1001
ACAD_PSEXT
1000
Adobe PDF
1000
Adobe PDF Converter
1000
Documents\*.pdf
1000

1070
     0
  0
LAYOUT
  5
22
102
{ACAD_XDICTIONARY
360
733
102
}
102
{ACAD_REACTORS
330
1A
102
}
330
1A
100
AcDbPlotSettings
  1

  2
none_device
  4

  6

 40
0.0
 41
0.0
 42
0.0
 43
0.0
 44
0.0
 45
0.0
 46
0.0
 47
0.0
 48
0.0
 49
0.0
140
0.0
141
0.0
142
1.0
143
1.0
 70
  1712
 72
     0
 73
     0
 74
     0
  7

 75
     0
147
1.0
 76
     0
 77
     2
 78
   300
148
0.0
149
0.0
100
AcDbLayout
  1
Model
 70
     1
 71
     0
 10
0.0
 20
0.0
 11
12.0
 21
9.0
 12
0.0
 22
0.0
 32
0.0
 14
1.000000000000000E+20
 24
1.000000000000000E+20
 34
1.000000000000000E+20
 15
-1.000000000000000E+20
 25
-1.000000000000000E+20
 35
-1.000000000000000E+20
146
0.0
 13
0.0
 23
0.0
 33
0.0
 16
1.0
 26
0.0
 36
0.0
 17
0.0
 27
1.0
 37
0.0
 76
     0
330
1F
331
29
  0
MATERIAL
  5
3D
102
{ACAD_REACTORS
330
3B
102
}
330
3B
100
AcDbMaterial
  1
ByBlock
 73
     1
 78
     1
172
     1
176
     1
270
     1
274
     1
  0
MATERIAL
  5
3C
102
{ACAD_REACTORS
330
3B
102
}
330
3B
100
AcDbMaterial
  1
ByLayer
 73
     1
 78
     1
172
     1
176
     1
270
     1
274
     1
  0
MATERIAL
  5
3E
102
{ACAD_REACTORS
330
3B
102
}
330
3B
100
AcDbMaterial
  1
Global
 73
     1
 78
     1
172
     1
176
     1
270
     1
274
     1
  0
MLEADERSTYLE
  5
1A5
102
{ACAD_REACTORS
330
196
102
}
330
196
100
AcDbMLeaderStyle
179
     2
170
     2
171
     1
172
     0
 90
        2
 40
0.0
 41
0.0
173
     1
 91
-1056964608
340
14
 92
       -2
290
     1
 42
0.09
291
     1
 43
0.36
  3
Standard
 44
0.18
300

342
11
174
     1
178
     6
175
     1
176
     0
 93
-1056964608
 45
0.18
292
     0
297
     0
 46
0.18
 94
-1056964608
 47
1.0
 49
1.0
140
1.0
293
     1
141
0.0
294
     1
177
     0
142
1.0
295
     0
296
     0
143
0.125
271
     0
272
     9
273
     9
298
     1
  0
MLINESTYLE
  5
18
102
{ACAD_REACTORS
330
17
102
}
330
17
100
AcDbMlineStyle
  2
STANDARD
 70
     0
  3

 62
   256
 51
90.0
 52
90.0
 71
     2
 49
0.5
 62
   256
  6
BYLAYER
 49
-0.5
 62
   256
  6
BYLAYER
  0
ACDBPLACEHOLDER
  5
F
102
{ACAD_REACTORS
330
E
102
}
330
E
  0
SCALE
  5
122
102
{ACAD_REACTORS
330
121
102
}
330
121
100
AcDbScale
 70
     0
300
1:1
140
1.0
141
1.0
290
     1
  0
SCALE
  5
123
102
{ACAD_REACTORS
330
121
102
}
330
121
100
AcDbScale
 70
     0
300
1:2
140
1.0
141
2.0
290
     0
  0
SCALE
  5
124
102
{ACAD_REACTORS
330
121
102
}
330
121
100
AcDbScale
 70
     0
300
1:4
140
1.0
141
4.0
290
     0
  0
SCALE
  5
125
102
{ACAD_REACTORS
330
121
102
}
330
121
100
AcDbScale
 70
     0
300
1:5
140
1.0
141
5.0
290
     0
  0
SCALE
  5
126
102
{ACAD_REACTORS
330
121
102
}
330
121
100
AcDbScale
 70
     0
300
1:8
140
1.0
141
8.0
290
     0
  0
SCALE
  5
127
102
{ACAD_REACTORS
330
121
102
}
330
121
100
AcDbScale
 70
     0
300
1:10
140
1.0
141
10.0
290
     0
  0
SCALE
  5
128
102
{ACAD_REACTORS
330
121
102
}
330
121
100
AcDbScale
 70
     0
300
1:16
140
1.0
141
16.0
290
     0
  0
SCALE
  5
129
102
{ACAD_REACTORS
330
121
102
}
330
121
100
AcDbScale
 70
     0
300
1:20
140
1.0
141
20.0
290
     0
  0
SCALE
  5
12A
102
{ACAD_REACTORS
330
121
102
}
330
121
100
AcDbScale
 70
     0
300
1:30
140
1.0
141
30.0
290
     0
  0
SCALE
  5
12B
102
{ACAD_REACTORS
330
121
102
}
330
121
100
AcDbScale
 70
     0
300
1:40
140
1.0
141
40.0
290
     0
  0
SCALE
  5
12C
102
{ACAD_REACTORS
330
121
102
}
330
121
100
AcDbScale
 70
     0
300
1:50
140
1.0
141
50.0
290
     0
  0
SCALE
  5
12D
102
{ACAD_REACTORS
330
121
102
}
330
121
100
AcDbScale
 70
     0
300
1:100
140
1.0
141
100.0
290
     0
  0
SCALE
  5
12E
102
{ACAD_REACTORS
330
121
102
}
330
121
100
AcDbScale
 70
     0
300
2:1
140
2.0
141
1.0
290
     0
  0
SCALE
  5
12F
102
{ACAD_REACTORS
330
121
102
}
330
121
100
AcDbScale
 70
     0
300
4:1
140
4.0
141
1.0
290
     0
  0
SCALE
  5
130
102
{ACAD_REACTORS
330
121
102
}
330
121
100
AcDbScale
 70
     0
300
8:1
140
8.0
141
1.0
290
     0
  0
SCALE
  5
131
102
{ACAD_REACTORS
330
121
102
}
330
121
100
AcDbScale
 70
     0
300
10:1
140
10.0
141
1.0
290
     0
  0
SCALE
  5
132
102
{ACAD_REACTORS
330
121
102
}
330
121
100
AcDbScale
 70
     0
300
100:1
140
100.0
141
1.0
290
     0
  0
SCALE
  5
133
102
{ACAD_REACTORS
330
121
102
}
330
121
100
AcDbScale
 70
     0
300
1/128" = 1'-0"
140
0.0078125
141
12.0
290
     0
  0
SCALE
  5
134
102
{ACAD_REACTORS
330
121
102
}
330
121
100
AcDbScale
 70
     0
300
1/64" = 1'-0"
140
0.015625
141
12.0
290
     0
  0
SCALE
  5
135
102
{ACAD_REACTORS
330
121
102
}
330
121
100
AcDbScale
 70
     0
300
1/32" = 1'-0"
140
0.03125
141
12.0
290
     0
  0
SCALE
  5
136
102
{ACAD_REACTORS
330
121
102
}
330
121
100
AcDbScale
 70
     0
300
1/16" = 1'-0"
140
0.0625
141
12.0
290
     0
  0
SCALE
  5
137
102
{ACAD_REACTORS
330
121
102
}
330
121
100
AcDbScale
 70
     0
300
3/32" = 1'-0"
140
0.09375
141
12.0
290
     0
  0
SCALE
  5
138
102
{ACAD_REACTORS
330
121
102
}
330
121
100
AcDbScale
 70
     0
300
1/8" = 1'-0"
140
0.125
141
12.0
290
     0
  0
SCALE
  5
139
102
{ACAD_REACTORS
330
121
102
}
330
121
100
AcDbScale
 70
     0
300
3/16" = 1'-0"
140
0.1875
141
12.0
290
     0
  0
SCALE
  5
13A
102
{ACAD_REACTORS
330
121
102
}
330
121
100
AcDbScale
 70
     0
300
1/4" = 1'-0"
140
0.25
141
12.0
290
     0
  0
SCALE
  5
13B
102
{ACAD_REACTORS
330
121
102
}
330
121
100
AcDbScale
 70
     0
300
3/8" = 1'-0"
140
0.375
141
12.0
290
     0
  0
SCALE
  5
13C
102
{ACAD_REACTORS
330
121
102
}
330
121
100
AcDbScale
 70
     0
300
1/2" = 1'-0"
140
0.5
141
12.0
290
     0
  0
SCALE
  5
13D
102
{ACAD_REACTORS
330
121
102
}
330
121
100
AcDbScale
 70
     0
300
3/4" = 1'-0"
140
0.75
141
12.0
290
     0
  0
SCALE
  5
13E
102
{ACAD_REACTORS
330
121
102
}
330
121
100
AcDbScale
 70
     0
300
1" = 1'-0"
140
1.0
141
12.0
290
     0
  0
SCALE
  5
13F
102
{ACAD_REACTORS
330
121
102
}
330
121
100
AcDbScale
 70
     0
300
1-1/2" = 1'-0"
140
1.5
141
12.0
290
     0
  0
SCALE
  5
140
102
{ACAD_REACTORS
330
121
102
}
330
121
100
AcDbScale
 70
     0
300
3" = 1'-0"
140
3.0
141
12.0
290
     0
  0
SCALE
  5
141
102
{ACAD_REACTORS
330
121
102
}
330
121
100
AcDbScale
 70
     0
300
6" = 1'-0"
140
6.0
141
12.0
290
     0
  0
SCALE
  5
142
102
{ACAD_REACTORS
330
121
102
}
330
121
100
AcDbScale
 70
     0
300
1'-0" = 1'-0"
140
12.0
141
12.0
290
     0
  0
ACDBSECTIONVIEWSTYLE
  5
1A8
102
{ACAD_XDICTIONARY
360
793
102
}
102
{ACAD_REACTORS
330
1A6
102
}
330
1A6
100
AcDbModelDocViewStyle
 70
     0
  3
Imperial24
290
     0
100
AcDbSectionViewStyle
 70
     0
 71
     0
 90
       78
 71
     1
340
11
 62
   256
 40
0.24
340
0
340
0
 62
   256
 40
0.24
300
I, O, Q, S, X, Z
 40
0.48
 90
        3
 40
0.18
 90
        1
 71
     2
340
1A7
 90
       25
 62
   256
340
16
 90
       50
 62
   256
 40
0.24
 40
0.0
 40
0.24
 71
     3
340
11
 62
   256
 40
0.24
 90
        1
 40
0.75
 90
        1
300
%<\AcVar ViewType \f "%tc1">% %<\AcVar ViewSectionStartId>%-%<\AcVar ViewSectionEndId>%\PSCALE %<\AcVar ViewScale \f "%sn">%
 71
     4
 62
   256
 62
   257
300
ANSI31
 40
1.0
 90
        0
290
     0
290
     0
 90
        6
 40
0.0
 40
1.570796326794896
 40
0.2617993877991494
 40
1.308996938995747
 40
-0.2617993877991494
 40
1.832595714594046
  0
TABLESTYLE
  5
1A4
102
{ACAD_XDICTIONARY
360
722
102
}
102
{ACAD_REACTORS
330
195
102
}
330
195
100
AcDbTableStyle
280
     0
  3
Standard
 70
     0
 71
     0
 40
0.06
 41
0.06
280
     0
281
     0
  7
Standard
140
0.18
170
     2
 62
     0
 63
     7
283
     0
 90
      512
 91
        0
  1

274
    -2
284
     1
 64
     0
275
    -2
285
     1
 65
     0
276
    -2
286
     1
 66
     0
277
    -2
287
     1
 67
     0
278
    -2
288
     1
 68
     0
279
    -2
289
     1
 69
     0
  7
Standard
140
0.25
170
     5
 62
     0
 63
     7
283
     0
 90
      512
 91
        0
  1

274
    -2
284
     1
 64
     0
275
    -2
285
     1
 65
     0
276
    -2
286
     1
 66
     0
277
    -2
287
     1
 67
     0
278
    -2
288
     1
 68
     0
279
    -2
289
     1
 69
     0
  7
Standard
140
0.18
170
     5
 62
     0
 63
     7
283
     0
 90
      512
 91
        0
  1

274
    -2
284
     1
 64
     0
275
    -2
285
     1
 65
     0
276
    -2
286
     1
 66
     0
277
    -2
287
     1
 67
     0
278
    -2
288
     1
 68
     0
279
    -2
289
     1
 69
     0
  0
VISUALSTYLE
  5
2F
102
{ACAD_REACTORS
330
2A
102
}
330
2A
100
AcDbVisualStyle
  2
2dWireframe
 70
     4
177
     3
291
     0
 70
    58
 90
        0
176
     1
 90
        2
176
     1
 90
        0
176
     1
 90
        0
176
     1
 40
0.6
176
     1
 40
30.0
176
     1
 62
     7
420
 16777215
176
     1
 90
        1
176
     1
 90
        4
176
     1
 62
     7
176
     1
 62
   257
176
     1
 90
        1
176
     1
 90
        1
176
     1
 40
1.0
176
     1
 90
        0
176
     1
 62
   257
176
     1
 40
1.0
176
     1
 90
        1
176
     1
 90
        6
176
     1
 90
        2
176
     1
 62
     7
176
     1
 90
        5
176
     1
 90
        0
176
     1
 90
        0
176
     1
290
     0
176
     1
 90
        1
176
     1
 40
0.0
176
     1
 90
        0
176
     1
290
     1
176
     1
290
     1
176
     1
290
     0
176
     1
290
     0
176
     1
290
     0
176
     1
290
     0
176
     1
290
     0
176
     1
290
     0
176
     1
290
     0
176
     1
 90
       50
176
     1
 40
0.0
176
     1
 40
1.0
176
     1
 90
        0
176
     1
 62
    18
420
        0
176
     1
 90
       50
176
     1
 90
        3
176
     1
 62
     5
420
      255
176
     1
290
     0
176
     1
 90
       50
176
     1
 90
       50
176
     1
 90
       50
176
     1
290
     0
176
     1
 90
       50
176
     1
 62
   256
176
     0
 40
1.0
176
     0
 90
        2
176
     1
  1
strokes_ogs.tif
176
     1
290
     0
176
     1
 40
1.0
176
     1
 40
1.0
176
     1
  0
VISUALSTYLE
  5
31
102
{ACAD_REACTORS
330
2A
102
}
330
2A
100
AcDbVisualStyle
  2
3D Hidden
 70
     6
177
     3
291
     0
 70
    58
 90
        1
176
     1
 90
        2
176
     1
 90
        2
176
     1
 90
        0
176
     1
 40
0.6
176
     1
 40
30.0
176
     1
 62
     7
420
 16777215
176
     1
 90
        2
176
     1
 90
        2
176
     1
 62
     7
176
     1
 62
   257
176
     1
 90
        2
176
     1
 90
        1
176
     1
 40
40.0
176
     1
 90
        0
176
     1
 62
   257
176
     1
 40
1.0
176
     1
 90
        1
176
     1
 90
        6
176
     1
 90
        2
176
     1
 62
     7
176
     1
 90
        3
176
     1
 90
        0
176
     1
 90
        0
176
     1
290
     0
176
     1
 90
        1
176
     1
 40
0.0
176
     1
 90
        0
176
     1
290
     0
176
     1
290
     1
176
     1
290
     1
176
     1
290
     0
176
     1
290
     0
176
     1
290
     0
176
     1
290
     0
176
     1
290
     0
176
     1
290
     0
176
     1
 90
       50
176
     1
 40
0.0
176
     1
 40
1.0
176
     1
 90
        0
176
     1
 62
    18
420
        0
176
     1
 90
       50
176
     1
 90
        3
176
     1
 62
     5
420
      255
176
     1
290
     0
176
     1
 90
       50
176
     1
 90
       50
176
     1
 90
       50
176
     1
290
     0
176
     1
 90
       50
176
     1
 62
   256
176
     0
 40
1.0
176
     0
 90
        2
176
     1
  1
strokes_ogs.tif
176
     1
290
     0
176
     1
 40
1.0
176
     1
 40
1.0
176
     1
  0
VISUALSTYLE
  5
30
102
{ACAD_REACTORS
330
2A
102
}
330
2A
100
AcDbVisualStyle
  2
3dWireframe
 70
     5
177
     3
291
     0
 70
    58
 90
        0
176
     1
 90
        2
176
     1
 90
        0
176
     1
 90
        0
176
     1
 40
0.6
176
     1
 40
30.0
176
     1
 62
     7
420
 16777215
176
     1
 90
        1
176
     1
 90
        4
176
     1
 62
     7
176
     1
 62
   257
176
     1
 90
        1
176
     1
 90
        1
176
     1
 40
1.0
176
     1
 90
        0
176
     1
 62
   257
176
     1
 40
1.0
176
     1
 90
        1
176
     1
 90
        6
176
     1
 90
        2
176
     1
 62
     7
176
     1
 90
        5
176
     1
 90
        0
176
     1
 90
        0
176
     1
290
     0
176
     1
 90
        1
176
     1
 40
0.0
176
     1
 90
        0
176
     1
290
     0
176
     1
290
     1
176
     1
290
     1
176
     1
290
     0
176
     1
290
     0
176
     1
290
     0
176
     1
290
     0
176
     1
290
     0
176
     1
290
     0
176
     1
 90
       50
176
     1
 40
0.0
176
     1
 40
1.0
176
     1
 90
        0
176
     1
 62
    18
420
        0
176
     1
 90
       50
176
     1
 90
        3
176
     1
 62
     5
420
      255
176
     1
290
     0
176
     1
 90
       50
176
     1
 90
       50
176
     1
 90
       50
176
     1
290
     0
176
     1
 90
       50
176
     1
 62
   256
176
     0
 40
1.0
176
     0
 90
        2
176
     1
  1
strokes_ogs.tif
176
     1
290
     0
176
     1
 40
1.0
176
     1
 40
1.0
176
     1
  0
VISUALSTYLE
  5
32
102
{ACAD_REACTORS
330
2A
102
}
330
2A
100
AcDbVisualStyle
  2
Basic
 70
     7
177
     3
291
     1
 70
    58
 90
        1
176
     1
 90
        0
176
     1
 90
        1
176
     1
 90
        0
176
     1
 40
0.6
176
     1
 40
30.0
176
     1
 62
     7
420
 16777215
176
     1
 90
        0
176
     1
 90
        4
176
     1
 62
     7
176
     1
 62
   257
176
     1
 90
        1
176
     1
 90
        1
176
     1
 40
1.0
176
     1
 90
        8
176
     1
 62
     7
176
     1
 40
1.0
176
     1
 90
        1
176
     1
 90
        6
176
     1
 90
        2
176
     1
 62
     7
176
     1
 90
        5
176
     1
 90
        0
176
     1
 90
        0
176
     1
290
     0
176
     1
 90
        1
176
     1
 40
0.0
176
     1
 90
        0
176
     1
290
     0
176
     1
290
     1
176
     1
290
     1
176
     1
290
     0
176
     1
290
     0
176
     1
290
     0
176
     1
290
     0
176
     1
290
     0
176
     1
290
     0
176
     1
 90
       50
176
     1
 40
0.0
176
     1
 40
1.0
176
     1
 90
        0
176
     1
 62
    18
420
        0
176
     1
 90
       50
176
     1
 90
        3
176
     1
 62
     5
420
      255
176
     1
290
     0
176
     1
 90
       50
176
     1
 90
       50
176
     1
 90
       50
176
     1
290
     0
176
     1
 90
       50
176
     1
 62
   256
176
     0
 40
1.0
176
     0
 90
        2
176
     1
  1
strokes_ogs.tif
176
     1
290
     0
176
     1
 40
1.0
176
     1
 40
1.0
176
     1
  0
VISUALSTYLE
  5
36
102
{ACAD_REACTORS
330
2A
102
}
330
2A
100
AcDbVisualStyle
  2
Brighten
 70
    12
177
     3
291
     1
 70
    58
 90
        2
176
     1
 90
        2
176
     1
 90
        0
176
     1
 90
        0
176
     1
 40
0.6
176
     1
 40
30.0
176
     1
 62
     7
420
 16777215
176
     1
 90
        1
176
     1
 90
        4
176
     1
 62
     7
176
     1
 62
   257
176
     1
 90
        1
176
     1
 90
        1
176
     1
 40
1.0
176
     1
 90
        8
176
     1
 62
     7
176
     1
 40
1.0
176
     1
 90
        1
176
     1
 90
        6
176
     1
 90
        2
176
     1
 62
     7
176
     1
 90
        5
176
     1
 90
        0
176
     1
 90
        0
176
     1
290
     0
176
     1
 90
        1
176
     1
 40
50.0
176
     1
 90
        0
176
     1
290
     0
176
     1
290
     1
176
     1
290
     1
176
     1
290
     0
176
     1
290
     0
176
     1
290
     0
176
     1
290
     0
176
     1
290
     0
176
     1
290
     0
176
     1
 90
       50
176
     1
 40
0.0
176
     1
 40
1.0
176
     1
 90
        0
176
     1
 62
    18
420
        0
176
     1
 90
       50
176
     1
 90
        3
176
     1
 62
     5
420
      255
176
     1
290
     0
176
     1
 90
       50
176
     1
 90
       50
176
     1
 90
       50
176
     1
290
     0
176
     1
 90
       50
176
     1
 62
   256
176
     0
 40
1.0
176
     0
 90
        2
176
     1
  1
strokes_ogs.tif
176
     1
290
     0
176
     1
 40
1.0
176
     1
 40
1.0
176
     1
  0
VISUALSTYLE
  5
3A
102
{ACAD_REACTORS
330
2A
102
}
330
2A
100
AcDbVisualStyle
  2
ColorChange
 70
    16
177
     3
291
     1
 70
    58
 90
        2
176
     1
 90
        2
176
     1
 90
        3
176
     1
 90
        0
176
     1
 40
0.6
176
     1
 40
30.0
176
     1
 62
     8
420
  8421504
176
     1
 90
        1
176
     1
 90
        4
176
     1
 62
     7
176
     1
 62
   257
176
     1
 90
        1
176
     1
 90
        1
176
     1
 40
1.0
176
     1
 90
        8
176
     1
 62
     8
420
  8421504
176
     1
 40
1.0
176
     1
 90
        1
176
     1
 90
        6
176
     1
 90
        2
176
     1
 62
     7
176
     1
 90
        5
176
     1
 90
        0
176
     1
 90
        0
176
     1
290
     0
176
     1
 90
        1
176
     1
 40
0.0
176
     1
 90
        0
176
     1
290
     0
176
     1
290
     1
176
     1
290
     1
176
     1
290
     0
176
     1
290
     0
176
     1
290
     0
176
     1
290
     0
176
     1
290
     0
176
     1
290
     0
176
     1
 90
       50
176
     1
 40
0.0
176
     1
 40
1.0
176
     1
 90
        0
176
     1
 62
    18
420
        0
176
     1
 90
       50
176
     1
 90
        3
176
     1
 62
     5
420
      255
176
     1
290
     0
176
     1
 90
       50
176
     1
 90
       50
176
     1
 90
       50
176
     1
290
     0
176
     1
 90
       50
176
     1
 62
   256
176
     0
 40
1.0
176
     0
 90
        2
176
     1
  1
strokes_ogs.tif
176
     1
290
     0
176
     1
 40
1.0
176
     1
 40
1.0
176
     1
  0
VISUALSTYLE
  5
34
102
{ACAD_REACTORS
330
2A
102
}
330
2A
100
AcDbVisualStyle
  2
Conceptual
 70
     9
177
     3
291
     0
 70
    58
 90
        3
176
     1
 90
        2
176
     1
 90
        0
176
     1
 90
        0
176
     1
 40
0.6
176
     1
 40
30.0
176
     1
 62
     7
420
 16777215
176
     1
 90
        2
176
     1
 90
        2
176
     1
 62
     7
176
     1
 62
   257
176
     1
 90
        1
176
     1
 90
        1
176
     1
 40
40.0
176
     1
 90
        8
176
     1
 62
     7
176
     1
 40
1.0
176
     1
 90
        1
176
     1
 90
        6
176
     1
 90
        2
176
     1
 62
     7
176
     1
 90
        3
176
     1
 90
        0
176
     1
 90
        0
176
     1
290
     0
176
     1
 90
        1
176
     1
 40
0.0
176
     1
 90
        0
176
     1
290
     0
176
     1
290
     1
176
     1
290
     1
176
     1
290
     0
176
     1
290
     0
176
     1
290
     0
176
     1
290
     0
176
     1
290
     0
176
     1
290
     0
176
     1
 90
       50
176
     1
 40
0.0
176
     1
 40
1.0
176
     1
 90
        0
176
     1
 62
    18
420
        0
176
     1
 90
       50
176
     1
 90
        3
176
     1
 62
     5
420
      255
176
     1
290
     0
176
     1
 90
       50
176
     1
 90
       50
176
     1
 90
       50
176
     1
290
     0
176
     1
 90
       50
176
     1
 62
   256
176
     0
 40
1.0
176
     0
 90
        2
176
     1
  1
strokes_ogs.tif
176
     1
290
     0
176
     1
 40
1.0
176
     1
 40
1.0
176
     1
  0
VISUALSTYLE
  5
35
102
{ACAD_REACTORS
330
2A
102
}
330
2A
100
AcDbVisualStyle
  2
Dim
 70
    11
177
     3
291
     1
 70
    58
 90
        2
176
     1
 90
        2
176
     1
 90
        0
176
     1
 90
        0
176
     1
 40
0.6
176
     1
 40
30.0
176
     1
 62
     7
420
 16777215
176
     1
 90
        1
176
     1
 90
        4
176
     1
 62
     7
176
     1
 62
   257
176
     1
 90
        1
176
     1
 90
        1
176
     1
 40
1.0
176
     1
 90
        8
176
     1
 62
     7
176
     1
 40
1.0
176
     1
 90
        1
176
     1
 90
        6
176
     1
 90
        2
176
     1
 62
     7
176
     1
 90
        5
176
     1
 90
        0
176
     1
 90
        0
176
     1
290
     0
176
     1
 90
        1
176
     1
 40
-50.0
176
     1
 90
        0
176
     1
290
     0
176
     1
290
     1
176
     1
290
     1
176
     1
290
     0
176
     1
290
     0
176
     1
290
     0
176
     1
290
     0
176
     1
290
     0
176
     1
290
     0
176
     1
 90
       50
176
     1
 40
0.0
176
     1
 40
1.0
176
     1
 90
        0
176
     1
 62
    18
420
        0
176
     1
 90
       50
176
     1
 90
        3
176
     1
 62
     5
420
      255
176
     1
290
     0
176
     1
 90
       50
176
     1
 90
       50
176
     1
 90
       50
176
     1
290
     0
176
     1
 90
       50
176
     1
 62
   256
176
     0
 40
1.0
176
     0
 90
        2
176
     1
  1
strokes_ogs.tif
176
     1
290
     0
176
     1
 40
1.0
176
     1
 40
1.0
176
     1
  0
VISUALSTYLE
  5
1A2
102
{ACAD_REACTORS
330
2A
102
}
330
2A
100
AcDbVisualStyle
  2
EdgeColorOff
 70
    22
177
     3
291
     1
 70
    58
 90
        2
176
     0
 90
        2
176
     0
 90
        0
176
     0
 90
        0
176
     0
 40
0.6
176
     0
 40
30.0
176
     0
 62
     7
420
 16777215
176
     0
 90
        1
176
     0
 90
        4
176
     0
 62
     7
176
     0
 62
   257
176
     0
 90
        1
176
     0
 90
        1
176
     0
 40
1.0
176
     0
 90
        8
176
     2
 62
     7
176
     0
 40
1.0
176
     0
 90
        1
176
     0
 90
        6
176
     0
 90
        2
176
     0
 62
     7
176
     0
 90
        5
176
     0
 90
        0
176
     0
 90
        0
176
     0
290
     0
176
     0
 90
        1
176
     0
 40
0.0
176
     0
 90
        0
176
     0
290
     0
176
     0
290
     1
176
     0
290
     1
176
     0
290
     0
176
     0
290
     0
176
     0
290
     0
176
     0
290
     0
176
     0
290
     0
176
     0
290
     0
176
     0
 90
       50
176
     0
 40
0.0
176
     0
 40
1.0
176
     0
 90
        0
176
     0
 62
    18
420
        0
176
     0
 90
       50
176
     0
 90
        3
176
     0
 62
     5
420
      255
176
     0
290
     0
176
     0
 90
       50
176
     0
 90
       50
176
     0
 90
       50
176
     0
290
     0
176
     0
 90
       50
176
     0
 62
   256
176
     0
 40
1.0
176
     0
 90
        2
176
     0
  1
strokes_ogs.tif
176
     0
290
     0
176
     0
 40
1.0
176
     0
 40
1.0
176
     0
  0
VISUALSTYLE
  5
39
102
{ACAD_REACTORS
330
2A
102
}
330
2A
100
AcDbVisualStyle
  2
Facepattern
 70
    15
177
     3
291
     1
 70
    58
 90
        2
176
     1
 90
        2
176
     1
 90
        0
176
     1
 90
        0
176
     1
 40
0.6
176
     1
 40
30.0
176
     1
 62
     7
420
 16777215
176
     1
 90
        1
176
     1
 90
        4
176
     1
 62
     7
176
     1
 62
   257
176
     1
 90
        1
176
     1
 90
        1
176
     1
 40
1.0
176
     1
 90
        8
176
     1
 62
     7
176
     1
 40
1.0
176
     1
 90
        1
176
     1
 90
        6
176
     1
 90
        2
176
     1
 62
     7
176
     1
 90
        5
176
     1
 90
        0
176
     1
 90
        0
176
     1
290
     0
176
     1
 90
        1
176
     1
 40
0.0
176
     1
 90
        0
176
     1
290
     0
176
     1
290
     1
176
     1
290
     1
176
     1
290
     0
176
     1
290
     0
176
     1
290
     0
176
     1
290
     0
176
     1
290
     0
176
     1
290
     0
176
     1
 90
       50
176
     1
 40
0.0
176
     1
 40
1.0
176
     1
 90
        0
176
     1
 62
    18
420
        0
176
     1
 90
       50
176
     1
 90
        3
176
     1
 62
     5
420
      255
176
     1
290
     0
176
     1
 90
       50
176
     1
 90
       50
176
     1
 90
       50
176
     1
290
     0
176
     1
 90
       50
176
     1
 62
   256
176
     0
 40
1.0
176
     0
 90
        2
176
     1
  1
strokes_ogs.tif
176
     1
290
     0
176
     1
 40
1.0
176
     1
 40
1.0
176
     1
  0
VISUALSTYLE
  5
2B
102
{ACAD_REACTORS
330
2A
102
}
330
2A
100
AcDbVisualStyle
  2
Flat
 70
     0
177
     3
291
     1
 70
    58
 90
        2
176
     1
 90
        1
176
     1
 90
        1
176
     1
 90
        2
176
     1
 40
0.6
176
     1
 40
30.0
176
     1
 62
     7
420
 16777215
176
     1
 90
        0
176
     1
 90
        4
176
     1
 62
     7
176
     1
 62
   257
176
     1
 90
        1
176
     1
 90
        1
176
     1
 40
1.0
176
     1
 90
        8
176
     1
 62
     7
176
     1
 40
1.0
176
     1
 90
        1
176
     1
 90
        6
176
     1
 90
        2
176
     1
 62
     7
176
     1
 90
        5
176
     1
 90
        0
176
     1
 90
        0
176
     1
290
     0
176
     1
 90
       13
176
     1
 40
0.0
176
     1
 90
        0
176
     1
290
     0
176
     1
290
     1
176
     1
290
     1
176
     1
290
     0
176
     1
290
     0
176
     1
290
     0
176
     1
290
     0
176
     1
290
     0
176
     1
290
     0
176
     1
 90
       50
176
     1
 40
0.0
176
     1
 40
1.0
176
     1
 90
        0
176
     1
 62
    18
420
        0
176
     1
 90
       50
176
     1
 90
        3
176
     1
 62
     5
420
      255
176
     1
290
     0
176
     1
 90
       50
176
     1
 90
       50
176
     1
 90
       50
176
     1
290
     0
176
     1
 90
       50
176
     1
 62
   256
176
     0
 40
1.0
176
     0
 90
        2
176
     1
  1
strokes_ogs.tif
176
     1
290
     0
176
     1
 40
1.0
176
     1
 40
1.0
176
     1
  0
VISUALSTYLE
  5
2C
102
{ACAD_REACTORS
330
2A
102
}
330
2A
100
AcDbVisualStyle
  2
FlatWithEdges
 70
     1
177
     3
291
     1
 70
    58
 90
        2
176
     1
 90
        1
176
     1
 90
        1
176
     1
 90
        2
176
     1
 40
0.6
176
     1
 40
30.0
176
     1
 62
     7
420
 16777215
176
     1
 90
        1
176
     1
 90
        4
176
     1
 62
     7
176
     1
 62
   257
176
     1
 90
        1
176
     1
 90
        1
176
     1
 40
1.0
176
     1
 90
        0
176
     1
 62
   257
176
     1
 40
1.0
176
     1
 90
        1
176
     1
 90
        6
176
     1
 90
        2
176
     1
 62
     7
176
     1
 90
        5
176
     1
 90
        0
176
     1
 90
        0
176
     1
290
     0
176
     1
 90
       13
176
     1
 40
0.0
176
     1
 90
        0
176
     1
290
     0
176
     1
290
     1
176
     1
290
     1
176
     1
290
     0
176
     1
290
     0
176
     1
290
     0
176
     1
290
     0
176
     1
290
     0
176
     1
290
     0
176
     1
 90
       50
176
     1
 40
0.0
176
     1
 40
1.0
176
     1
 90
        0
176
     1
 62
    18
420
        0
176
     1
 90
       50
176
     1
 90
        3
176
     1
 62
     5
420
      255
176
     1
290
     0
176
     1
 90
       50
176
     1
 90
       50
176
     1
 90
       50
176
     1
290
     0
176
     1
 90
       50
176
     1
 62
   256
176
     0
 40
1.0
176
     0
 90
        2
176
     1
  1
strokes_ogs.tif
176
     1
290
     0
176
     1
 40
1.0
176
     1
 40
1.0
176
     1
  0
VISUALSTYLE
  5
2D
102
{ACAD_REACTORS
330
2A
102
}
330
2A
100
AcDbVisualStyle
  2
Gouraud
 70
     2
177
     3
291
     1
 70
    58
 90
        2
176
     1
 90
        2
176
     1
 90
        1
176
     1
 90
        2
176
     1
 40
0.6
176
     1
 40
30.0
176
     1
 62
     7
420
 16777215
176
     1
 90
        0
176
     1
 90
        4
176
     1
 62
     7
176
     1
 62
   257
176
     1
 90
        1
176
     1
 90
        1
176
     1
 40
1.0
176
     1
 90
        0
176
     1
 62
     7
176
     1
 40
1.0
176
     1
 90
        1
176
     1
 90
        6
176
     1
 90
        2
176
     1
 62
     7
176
     1
 90
        5
176
     1
 90
        0
176
     1
 90
        0
176
     1
290
     0
176
     1
 90
       13
176
     1
 40
0.0
176
     1
 90
        0
176
     1
290
     0
176
     1
290
     1
176
     1
290
     1
176
     1
290
     0
176
     1
290
     0
176
     1
290
     0
176
     1
290
     0
176
     1
290
     0
176
     1
290
     0
176
     1
 90
       50
176
     1
 40
0.0
176
     1
 40
1.0
176
     1
 90
        0
176
     1
 62
    18
420
        0
176
     1
 90
       50
176
     1
 90
        3
176
     1
 62
     5
420
      255
176
     1
290
     0
176
     1
 90
       50
176
     1
 90
       50
176
     1
 90
       50
176
     1
290
     0
176
     1
 90
       50
176
     1
 62
   256
176
     0
 40
1.0
176
     0
 90
        2
176
     1
  1
strokes_ogs.tif
176
     1
290
     0
176
     1
 40
1.0
176
     1
 40
1.0
176
     1
  0
VISUALSTYLE
  5
2E
102
{ACAD_REACTORS
330
2A
102
}
330
2A
100
AcDbVisualStyle
  2
GouraudWithEdges
 70
     3
177
     3
291
     1
 70
    58
 90
        2
176
     1
 90
        2
176
     1
 90
        1
176
     1
 90
        2
176
     1
 40
0.6
176
     1
 40
30.0
176
     1
 62
     7
420
 16777215
176
     1
 90
        1
176
     1
 90
        4
176
     1
 62
     7
176
     1
 62
   257
176
     1
 90
        1
176
     1
 90
        1
176
     1
 40
1.0
176
     1
 90
        0
176
     1
 62
   257
176
     1
 40
1.0
176
     1
 90
        1
176
     1
 90
        6
176
     1
 90
        2
176
     1
 62
     7
176
     1
 90
        5
176
     1
 90
        0
176
     1
 90
        0
176
     1
290
     0
176
     1
 90
       13
176
     1
 40
0.0
176
     1
 90
        0
176
     1
290
     0
176
     1
290
     1
176
     1
290
     1
176
     1
290
     0
176
     1
290
     0
176
     1
290
     0
176
     1
290
     0
176
     1
290
     0
176
     1
290
     0
176
     1
 90
       50
176
     1
 40
0.0
176
     1
 40
1.0
176
     1
 90
        0
176
     1
 62
    18
420
        0
176
     1
 90
       50
176
     1
 90
        3
176
     1
 62
     5
420
      255
176
     1
290
     0
176
     1
 90
       50
176
     1
 90
       50
176
     1
 90
       50
176
     1
290
     0
176
     1
 90
       50
176
     1
 62
   256
176
     0
 40
1.0
176
     0
 90
        2
176
     1
  1
strokes_ogs.tif
176
     1
290
     0
176
     1
 40
1.0
176
     1
 40
1.0
176
     1
  0
VISUALSTYLE
  5
19A
102
{ACAD_REACTORS
330
2A
102
}
330
2A
100
AcDbVisualStyle
  2
Hidden
 70
     6
177
     3
291
     0
 70
    58
 90
        1
176
     1
 90
        2
176
     1
 90
        2
176
     1
 90
        0
176
     1
 40
0.6
176
     1
 40
30.0
176
     1
 62
     7
420
 16777215
176
     1
 90
        2
176
     1
 90
        2
176
     1
 62
     7
176
     1
 62
   257
176
     1
 90
        2
176
     1
 90
        1
176
     1
 40
40.0
176
     1
 90
        0
176
     1
 62
   257
176
     1
 40
1.0
176
     1
 90
        1
176
     1
 90
        6
176
     1
 90
        2
176
     1
 62
     7
176
     1
 90
        3
176
     1
 90
        0
176
     1
 90
        0
176
     1
290
     0
176
     1
 90
        1
176
     1
 40
0.0
176
     1
 90
        0
176
     1
290
     0
176
     1
290
     1
176
     1
290
     1
176
     1
290
     0
176
     1
290
     0
176
     1
290
     0
176
     1
290
     0
176
     1
290
     0
176
     1
290
     0
176
     1
 90
       50
176
     1
 40
0.0
176
     1
 40
1.0
176
     1
 90
        0
176
     1
 62
    18
420
        0
176
     1
 90
       50
176
     1
 90
        3
176
     1
 62
     5
420
      255
176
     1
290
     0
176
     1
 90
       50
176
     1
 90
       50
176
     1
 90
       50
176
     1
290
     0
176
     1
 90
       50
176
     1
 62
   256
176
     0
 40
1.0
176
     0
 90
        2
176
     1
  1
strokes_ogs.tif
176
     1
290
     0
176
     1
 40
1.0
176
     1
 40
1.0
176
     1
  0
VISUALSTYLE
  5
1A0
102
{ACAD_REACTORS
330
2A
102
}
330
2A
100
AcDbVisualStyle
  2
JitterOff
 70
    20
177
     3
291
     1
 70
    58
 90
        2
176
     0
 90
        2
176
     0
 90
        0
176
     0
 90
        0
176
     0
 40
0.6
176
     0
 40
30.0
176
     0
 62
     7
420
 16777215
176
     0
 90
        1
176
     0
 90
        4
176
     0
 62
     7
176
     0
 62
   257
176
     0
 90
        1
176
     0
 90
        1
176
     0
 40
1.0
176
     0
 90
       10
176
     2
 62
     7
176
     0
 40
1.0
176
     0
 90
        1
176
     0
 90
        6
176
     0
 90
        2
176
     0
 62
     7
176
     0
 90
        5
176
     0
 90
        0
176
     0
 90
        0
176
     0
290
     0
176
     0
 90
        1
176
     0
 40
0.0
176
     0
 90
        0
176
     0
290
     0
176
     0
290
     1
176
     0
290
     1
176
     0
290
     0
176
     0
290
     0
176
     0
290
     0
176
     0
290
     0
176
     0
290
     0
176
     0
290
     0
176
     0
 90
       50
176
     0
 40
0.0
176
     0
 40
1.0
176
     0
 90
        0
176
     0
 62
    18
420
        0
176
     0
 90
       50
176
     0
 90
        3
176
     0
 62
     5
420
      255
176
     0
290
     0
176
     0
 90
       50
176
     0
 90
       50
176
     0
 90
       50
176
     0
290
     0
176
     0
 90
       50
176
     0
 62
   256
176
     0
 40
1.0
176
     0
 90
        2
176
     0
  1
strokes_ogs.tif
176
     0
290
     0
176
     0
 40
1.0
176
     0
 40
1.0
176
     0
  0
VISUALSTYLE
  5
38
102
{ACAD_REACTORS
330
2A
102
}
330
2A
100
AcDbVisualStyle
  2
Linepattern
 70
    14
177
     3
291
     1
 70
    58
 90
        2
176
     1
 90
        2
176
     1
 90
        0
176
     1
 90
        0
176
     1
 40
0.6
176
     1
 40
30.0
176
     1
 62
     7
420
 16777215
176
     1
 90
        1
176
     1
 90
        4
176
     1
 62
     7
176
     1
 62
   257
176
     1
 90
        7
176
     1
 90
        7
176
     1
 40
1.0
176
     1
 90
        8
176
     1
 62
     7
176
     1
 40
1.0
176
     1
 90
        1
176
     1
 90
        6
176
     1
 90
        2
176
     1
 62
     7
176
     1
 90
        5
176
     1
 90
        0
176
     1
 90
        0
176
     1
290
     0
176
     1
 90
        1
176
     1
 40
0.0
176
     1
 90
        0
176
     1
290
     0
176
     1
290
     1
176
     1
290
     1
176
     1
290
     0
176
     1
290
     0
176
     1
290
     0
176
     1
290
     0
176
     1
290
     0
176
     1
290
     0
176
     1
 90
       50
176
     1
 40
0.0
176
     1
 40
1.0
176
     1
 90
        0
176
     1
 62
    18
420
        0
176
     1
 90
       50
176
     1
 90
        3
176
     1
 62
     5
420
      255
176
     1
290
     0
176
     1
 90
       50
176
     1
 90
       50
176
     1
 90
       50
176
     1
290
     0
176
     1
 90
       50
176
     1
 62
   256
176
     0
 40
1.0
176
     0
 90
        2
176
     1
  1
strokes_ogs.tif
176
     1
290
     0
176
     1
 40
1.0
176
     1
 40
1.0
176
     1
  0
VISUALSTYLE
  5
1A1
102
{ACAD_REACTORS
330
2A
102
}
330
2A
100
AcDbVisualStyle
  2
OverhangOff
 70
    21
177
     3
291
     1
 70
    58
 90
        2
176
     0
 90
        2
176
     0
 90
        0
176
     0
 90
        0
176
     0
 40
0.6
176
     0
 40
30.0
176
     0
 62
     7
420
 16777215
176
     0
 90
        1
176
     0
 90
        4
176
     0
 62
     7
176
     0
 62
   257
176
     0
 90
        1
176
     0
 90
        1
176
     0
 40
1.0
176
     0
 90
        9
176
     2
 62
     7
176
     0
 40
1.0
176
     0
 90
        1
176
     0
 90
        6
176
     0
 90
        2
176
     0
 62
     7
176
     0
 90
        5
176
     0
 90
        0
176
     0
 90
        0
176
     0
290
     0
176
     0
 90
        1
176
     0
 40
0.0
176
     0
 90
        0
176
     0
290
     0
176
     0
290
     1
176
     0
290
     1
176
     0
290
     0
176
     0
290
     0
176
     0
290
     0
176
     0
290
     0
176
     0
290
     0
176
     0
290
     0
176
     0
 90
       50
176
     0
 40
0.0
176
     0
 40
1.0
176
     0
 90
        0
176
     0
 62
    18
420
        0
176
     0
 90
       50
176
     0
 90
        3
176
     0
 62
     5
420
      255
176
     0
290
     0
176
     0
 90
       50
176
     0
 90
       50
176
     0
 90
       50
176
     0
290
     0
176
     0
 90
       50
176
     0
 62
   256
176
     0
 40
1.0
176
     0
 90
        2
176
     0
  1
strokes_ogs.tif
176
     0
290
     0
176
     0
 40
1.0
176
     0
 40
1.0
176
     0
  0
VISUALSTYLE
  5
33
102
{ACAD_REACTORS
330
2A
102
}
330
2A
100
AcDbVisualStyle
  2
Realistic
 70
     8
177
     3
291
     0
 70
    58
 90
        2
176
     1
 90
        2
176
     1
 90
        0
176
     1
 90
        0
176
     1
 40
0.6
176
     1
 40
30.0
176
     1
 62
     7
420
 16777215
176
     1
 90
        1
176
     1
 90
        0
176
     1
 62
     7
176
     1
 62
   257
176
     1
 90
        1
176
     1
 90
        1
176
     1
 40
1.0
176
     1
 90
        8
176
     1
 62
     8
420
  7895160
176
     1
 40
1.0
176
     1
 90
        1
176
     1
 90
        6
176
     1
 90
        2
176
     1
 62
     7
176
     1
 90
        5
176
     1
 90
        0
176
     1
 90
        0
176
     1
290
     0
176
     1
 90
       13
176
     1
 40
0.0
176
     1
 90
        0
176
     1
290
     0
176
     1
290
     1
176
     1
290
     1
176
     1
290
     0
176
     1
290
     0
176
     1
290
     0
176
     1
290
     0
176
     1
290
     0
176
     1
290
     0
176
     1
 90
       50
176
     1
 40
0.0
176
     1
 40
1.0
176
     1
 90
        0
176
     1
 62
    18
420
        0
176
     1
 90
       50
176
     1
 90
        3
176
     1
 62
     5
420
      255
176
     1
290
     0
176
     1
 90
       50
176
     1
 90
       50
176
     1
 90
       50
176
     1
290
     0
176
     1
 90
       50
176
     1
 62
   256
176
     0
 40
1.0
176
     0
 90
        2
176
     1
  1
strokes_ogs.tif
176
     1
290
     0
176
     1
 40
1.0
176
     1
 40
1.0
176
     1
  0
VISUALSTYLE
  5
19F
102
{ACAD_REACTORS
330
2A
102
}
330
2A
100
AcDbVisualStyle
  2
Shaded
 70
    27
177
     3
291
     0
 70
    58
 90
        2
176
     1
 90
        2
176
     1
 90
        1
176
     1
 90
        2
176
     1
 40
0.6
176
     1
 40
30.0
176
     1
 62
     7
420
 16777215
176
     1
 90
        0
176
     1
 90
        4
176
     1
 62
     7
176
     1
 62
   257
176
     1
 90
        1
176
     1
 90
        1
176
     1
 40
1.0
176
     1
 90
        8
176
     1
 62
   257
176
     1
 40
1.0
176
     1
 90
        1
176
     1
 90
        6
176
     1
 90
        2
176
     1
 62
     8
420
  7895160
176
     1
 90
        3
176
     1
 90
        0
176
     1
 90
        0
176
     1
290
     0
176
     1
 90
        5
176
     1
 40
0.0
176
     1
 90
        0
176
     1
290
     0
176
     1
290
     1
176
     1
290
     1
176
     1
290
     0
176
     1
290
     0
176
     1
290
     0
176
     1
290
     0
176
     1
290
     0
176
     1
290
     0
176
     1
 90
       50
176
     1
 40
0.0
176
     1
 40
1.0
176
     1
 90
        0
176
     1
 62
    18
420
        0
176
     1
 90
       50
176
     1
 90
        3
176
     1
 62
     5
420
      255
176
     1
290
     0
176
     1
 90
       50
176
     1
 90
       50
176
     1
 90
       50
176
     1
290
     0
176
     1
 90
       50
176
     1
 62
   256
176
     0
 40
1.0
176
     0
 90
        2
176
     1
  1
strokes_ogs.tif
176
     1
290
     0
176
     1
 40
1.0
176
     1
 40
1.0
176
     1
  0
VISUALSTYLE
  5
19E
102
{ACAD_REACTORS
330
2A
102
}
330
2A
100
AcDbVisualStyle
  2
Shaded with edges
 70
    26
177
     3
291
     0
 70
    58
 90
        2
176
     1
 90
        2
176
     1
 90
        1
176
     1
 90
        2
176
     1
 40
0.6
176
     1
 40
30.0
176
     1
 62
     7
420
 16777215
176
     1
 90
        1
176
     1
 90
       10
176
     1
 62
     7
176
     1
 62
   257
176
     1
 90
        2
176
     1
 90
        1
176
     1
 40
1.0
176
     1
 90
        8
176
     1
 62
   257
176
     1
 40
1.0
176
     1
 90
        1
176
     1
 90
        6
176
     1
 90
        2
176
     1
 62
     7
176
     1
 90
        3
176
     1
 90
        0
176
     1
 90
        0
176
     1
290
     0
176
     1
 90
        5
176
     1
 40
0.0
176
     1
 90
        0
176
     1
290
     0
176
     1
290
     1
176
     1
290
     1
176
     1
290
     0
176
     1
290
     0
176
     1
290
     0
176
     1
290
     0
176
     1
290
     0
176
     1
290
     0
176
     1
 90
       50
176
     1
 40
0.0
176
     1
 40
1.0
176
     1
 90
        0
176
     1
 62
    18
420
        0
176
     1
 90
       50
176
     1
 90
        3
176
     1
 62
     5
420
      255
176
     1
290
     0
176
     1
 90
       50
176
     1
 90
       50
176
     1
 90
       50
176
     1
290
     0
176
     1
 90
       50
176
     1
 62
   256
176
     0
 40
1.0
176
     0
 90
        2
176
     1
  1
strokes_ogs.tif
176
     1
290
     0
176
     1
 40
1.0
176
     1
 40
1.0
176
     1
  0
VISUALSTYLE
  5
19B
102
{ACAD_REACTORS
330
2A
102
}
330
2A
100
AcDbVisualStyle
  2
Shades of Gray
 70
    23
177
     3
291
     0
 70
    58
 90
        2
176
     1
 90
        2
176
     1
 90
        3
176
     1
 90
        0
176
     1
 40
0.6
176
     1
 40
30.0
176
     1
 62
     7
420
 16777215
176
     1
 90
        2
176
     1
 90
        2
176
     1
 62
     7
176
     1
 62
     7
176
     1
 90
        1
176
     1
 90
        1
176
     1
 40
40.0
176
     1
 90
        8
176
     1
 62
     7
176
     1
 40
1.0
176
     1
 90
        1
176
     1
 90
        6
176
     1
 90
        2
176
     1
 62
     7
176
     1
 90
        3
176
     1
 90
        0
176
     1
 90
        0
176
     1
290
     0
176
     1
 90
        1
176
     1
 40
0.0
176
     1
 90
        0
176
     1
290
     0
176
     1
290
     1
176
     1
290
     1
176
     1
290
     0
176
     1
290
     0
176
     1
290
     0
176
     1
290
     0
176
     1
290
     0
176
     1
290
     0
176
     1
 90
       50
176
     1
 40
0.0
176
     1
 40
1.0
176
     1
 90
        0
176
     1
 62
    18
420
        0
176
     1
 90
       50
176
     1
 90
        3
176
     1
 62
     5
420
      255
176
     1
290
     0
176
     1
 90
       50
176
     1
 90
       50
176
     1
 90
       50
176
     1
290
     0
176
     1
 90
       50
176
     1
 62
   256
176
     0
 40
1.0
176
     0
 90
        2
176
     1
  1
strokes_ogs.tif
176
     1
290
     0
176
     1
 40
1.0
176
     1
 40
1.0
176
     1
  0
VISUALSTYLE
  5
19C
102
{ACAD_REACTORS
330
2A
102
}
330
2A
100
AcDbVisualStyle
  2
Sketchy
 70
    24
177
     3
291
     0
 70
    58
 90
        1
176
     1
 90
        2
176
     1
 90
        2
176
     1
 90
        0
176
     1
 40
0.6
176
     1
 40
30.0
176
     1
 62
     7
420
 16777215
176
     1
 90
        2
176
     1
 90
        2
176
     1
 62
     7
176
     1
 62
     7
176
     1
 90
        1
176
     1
 90
        1
176
     1
 40
40.0
176
     1
 90
       11
176
     1
 62
     7
176
     1
 40
1.0
176
     1
 90
        1
176
     1
 90
        6
176
     1
 90
        2
176
     1
 62
     7
176
     1
 90
        6
176
     1
 90
        0
176
     1
 90
        0
176
     1
290
     0
176
     1
 90
        1
176
     1
 40
0.0
176
     1
 90
        0
176
     1
290
     0
176
     1
290
     1
176
     1
290
     1
176
     1
290
     0
176
     1
290
     0
176
     1
290
     0
176
     1
290
     0
176
     1
290
     0
176
     1
290
     0
176
     1
 90
       50
176
     1
 40
0.0
176
     1
 40
1.0
176
     1
 90
        0
176
     1
 62
    18
420
        0
176
     1
 90
       50
176
     1
 90
        3
176
     1
 62
     5
420
      255
176
     1
290
     0
176
     1
 90
       50
176
     1
 90
       50
176
     1
 90
       50
176
     1
290
     0
176
     1
 90
       50
176
     1
 62
   256
176
     0
 40
1.0
176
     0
 90
        2
176
     1
  1
strokes_ogs.tif
176
     1
290
     0
176
     1
 40
1.0
176
     1
 40
1.0
176
     1
  0
VISUALSTYLE
  5
37
102
{ACAD_REACTORS
330
2A
102
}
330
2A
100
AcDbVisualStyle
  2
Thicken
 70
    13
177
     3
291
     1
 70
    58
 90
        2
176
     1
 90
        2
176
     1
 90
        0
176
     1
 90
        0
176
     1
 40
0.6
176
     1
 40
30.0
176
     1
 62
     7
420
 16777215
176
     1
 90
        1
176
     1
 90
        4
176
     1
 62
     7
176
     1
 62
   257
176
     1
 90
        1
176
     1
 90
        1
176
     1
 40
1.0
176
     1
 90
       12
176
     1
 62
     7
176
     1
 40
1.0
176
     1
 90
        1
176
     1
 90
        6
176
     1
 90
        2
176
     1
 62
     7
176
     1
 90
        5
176
     1
 90
        0
176
     1
 90
        0
176
     1
290
     0
176
     1
 90
        1
176
     1
 40
0.0
176
     1
 90
        0
176
     1
290
     0
176
     1
290
     1
176
     1
290
     1
176
     1
290
     0
176
     1
290
     0
176
     1
290
     0
176
     1
290
     0
176
     1
290
     0
176
     1
290
     0
176
     1
 90
       50
176
     1
 40
0.0
176
     1
 40
1.0
176
     1
 90
        0
176
     1
 62
    18
420
        0
176
     1
 90
       50
176
     1
 90
        3
176
     1
 62
     5
420
      255
176
     1
290
     0
176
     1
 90
       50
176
     1
 90
       50
176
     1
 90
       50
176
     1
290
     0
176
     1
 90
       50
176
     1
 62
   256
176
     0
 40
1.0
176
     0
 90
        2
176
     1
  1
strokes_ogs.tif
176
     1
290
     0
176
     1
 40
1.0
176
     1
 40
1.0
176
     1
  0
VISUALSTYLE
  5
199
102
{ACAD_REACTORS
330
2A
102
}
330
2A
100
AcDbVisualStyle
  2
Wireframe
 70
     5
177
     3
291
     0
 70
    58
 90
        0
176
     1
 90
        2
176
     1
 90
        0
176
     1
 90
        0
176
     1
 40
0.6
176
     1
 40
30.0
176
     1
 62
     7
420
 16777215
176
     1
 90
        1
176
     1
 90
        4
176
     1
 62
     7
176
     1
 62
   257
176
     1
 90
        1
176
     1
 90
        1
176
     1
 40
1.0
176
     1
 90
        0
176
     1
 62
   257
176
     1
 40
1.0
176
     1
 90
        1
176
     1
 90
        6
176
     1
 90
        2
176
     1
 62
     7
176
     1
 90
        3
176
     1
 90
        0
176
     1
 90
        0
176
     1
290
     0
176
     1
 90
        1
176
     1
 40
0.0
176
     1
 90
        0
176
     1
290
     0
176
     1
290
     1
176
     1
290
     1
176
     1
290
     0
176
     1
290
     0
176
     1
290
     0
176
     1
290
     0
176
     1
290
     0
176
     1
290
     0
176
     1
 90
       50
176
     1
 40
0.0
176
     1
 40
1.0
176
     1
 90
        0
176
     1
 62
    18
420
        0
176
     1
 90
       50
176
     1
 90
        3
176
     1
 62
     5
420
      255
176
     1
290
     0
176
     1
 90
       50
176
     1
 90
       50
176
     1
 90
       50
176
     1
290
     0
176
     1
 90
       50
176
     1
 62
   256
176
     0
 40
1.0
176
     0
 90
        2
176
     1
  1
strokes_ogs.tif
176
     1
290
     0
176
     1
 40
1.0
176
     1
 40
1.0
176
     1
  0
VISUALSTYLE
  5
19D
102
{ACAD_REACTORS
330
2A
102
}
330
2A
100
AcDbVisualStyle
  2
X-Ray
 70
    25
177
     3
291
     0
 70
    58
 90
        2
176
     1
 90
        2
176
     1
 90
        1
176
     1
 90
        1
176
     1
 40
0.5
176
     1
 40
30.0
176
     1
 62
     7
420
 16777215
176
     1
 90
        1
176
     1
 90
        0
176
     1
 62
     7
176
     1
 62
   257
176
     1
 90
        1
176
     1
 90
        1
176
     1
 40
1.0
176
     1
 90
        8
176
     1
 62
     7
176
     1
 40
1.0
176
     1
 90
        1
176
     1
 90
        6
176
     1
 90
        2
176
     1
 62
     7
176
     1
 90
        3
176
     1
 90
        0
176
     1
 90
        0
176
     1
290
     0
176
     1
 90
       13
176
     1
 40
0.0
176
     1
 90
        0
176
     1
290
     0
176
     1
290
     1
176
     1
290
     1
176
     1
290
     0
176
     1
290
     0
176
     1
290
     0
176
     1
290
     0
176
     1
290
     0
176
     1
290
     0
176
     1
 90
       50
176
     1
 40
0.0
176
     1
 40
1.0
176
     1
 90
        0
176
     1
 62
    18
420
        0
176
     1
 90
       50
176
     1
 90
        3
176
     1
 62
     5
420
      255
176
     1
290
     0
176
     1
 90
       50
176
     1
 90
       50
176
     1
 90
       50
176
     1
290
     0
176
     1
 90
       50
176
     1
 62
   256
176
     0
 40
1.0
176
     0
 90
        2
176
     1
  1
strokes_ogs.tif
176
     1
290
     0
176
     1
 40
1.0
176
     1
 40
1.0
176
     1
  0
DICTIONARYVAR
  5
16E
102
{ACAD_REACTORS
330
16D
102
}
330
16D
100
DictionaryVariables
280
     0
  1
1:1
  0
DICTIONARYVAR
  5
6EE
102
{ACAD_REACTORS
330
16D
102
}
330
16D
100
DictionaryVariables
280
     0
  1
STANDARD
  0
DICTIONARYVAR
  5
6ED
102
{ACAD_REACTORS
330
16D
102
}
330
16D
100
DictionaryVariables
280
     0
  1
STANDARD
  0
DICTIONARYVAR
  5
6EF
102
{ACAD_REACTORS
330
16D
102
}
330
16D
100
DictionaryVariables
280
     0
  1
Imperial24
  0
DICTIONARYVAR
  5
6F0
102
{ACAD_REACTORS
330
16D
102
}
330
16D
100
DictionaryVariables
280
     0
  1
Imperial24
  0
DICTIONARYVAR
  5
6F3
102
{ACAD_REACTORS
330
16D
102
}
330
16D
100
DictionaryVariables
280
     0
  1
1
  0
DICTIONARYVAR
  5
6F4
102
{ACAD_REACTORS
330
16D
102
}
330
16D
100
DictionaryVariables
280
     0
  1
15
  0
DICTIONARYVAR
  5
6F2
102
{ACAD_REACTORS
330
16D
102
}
330
16D
100
DictionaryVariables
280
     0
  1
0
  0
DICTIONARYVAR
  5
6F1
102
{ACAD_REACTORS
330
16D
102
}
330
16D
100
DictionaryVariables
280
     0
  1
0
  0
XRECORD
  5
144
102
{ACAD_REACTORS
330
143
102
}
330
143
100
AcDbXrecord
280
     1
1000
This DWG file was created in ArchiCAD(TM)®
  0
DICTIONARY
  5
795
330
1AA
100
AcDbDictionary
280
     1
281
     1
  3
ACAD_XREC_ROUNDTRIP
360
796
  0
DICTIONARY
  5
76C
330
674
100
AcDbDictionary
280
     1
281
     1
  0
DICTIONARY
  5
733
330
22
100
AcDbDictionary
280
     1
281
     1
  0
DICTIONARY
  5
793
330
1A8
100
AcDbDictionary
280
     1
281
     1
  3
ACAD_XREC_ROUNDTRIP
360
794
  0
DICTIONARY
  5
722
330
1A4
100
AcDbDictionary
280
     1
281
     1
  3
ACAD_ROUNDTRIP_2008_TABLESTYLE_CELLSTYLEMAP
360
792
  0
XRECORD
  5
796
102
{ACAD_REACTORS
330
795
102
}
330
795
100
AcDbXrecord
280
     1
102
DISPLAYNAME
  1
Imperial24
102
FLAGS
 90
        0
  0
XRECORD
  5
794
102
{ACAD_REACTORS
330
793
102
}
330
793
100
AcDbXrecord
280
     1
102
DISPLAYNAME
  1
Imperial24
102
FLAGS
 90
        0
  0
CELLSTYLEMAP
  5
792
102
{ACAD_REACTORS
330
722
102
}
330
722
100
AcDbCellStyleMap
 90
        3
300
CELLSTYLE
  1
TABLEFORMAT_BEGIN
 90
        5
170
     1
 91
        0
 92
    32768
 62
   257
 93
        1
300
CONTENTFORMAT
  1
CONTENTFORMAT_BEGIN
 90
        0
 91
        0
 92
      512
 93
        0
300

 40
0.0
140
1.0
 94
        5
 62
     0
340
11
144
0.25
309
CONTENTFORMAT_END
171
     0
 94
        0
309
TABLEFORMAT_END
  1
CELLSTYLE_BEGIN
 90
        1
 91
        1
300
_TITLE
309
CELLSTYLE_END
300
CELLSTYLE
  1
TABLEFORMAT_BEGIN
 90
        5
170
     1
 91
        0
 92
        0
 62
   257
 93
        1
300
CONTENTFORMAT
  1
CONTENTFORMAT_BEGIN
 90
        0
 91
        0
 92
      512
 93
        0
300

 40
0.0
140
1.0
 94
        5
 62
     0
340
11
144
0.18
309
CONTENTFORMAT_END
171
     0
 94
        0
309
TABLEFORMAT_END
  1
CELLSTYLE_BEGIN
 90
        2
 91
        1
300
_HEADER
309
CELLSTYLE_END
300
CELLSTYLE
  1
TABLEFORMAT_BEGIN
 90
        5
170
     1
 91
        0
 92
        0
 62
   257
 93
        1
300
CONTENTFORMAT
  1
CONTENTFORMAT_BEGIN
 90
        0
 91
        0
 92
      512
 93
        0
300

 40
0.0
140
1.0
 94
        2
 62
     0
340
11
144
0.18
309
CONTENTFORMAT_END
171
     0
 94
        0
309
TABLEFORMAT_END
  1
CELLSTYLE_BEGIN
 90
        3
 91
        2
300
_DATA
309
CELLSTYLE_END
  0
ENDSEC
  0
SECTION
  2
ACDSDATA
 70
     2
 71
     6
  0
ACDSSCHEMA
 90
        0
  1
AcDb_Thumbnail_Schema
  2
AcDbDs::ID
280
    10
 91
        8
  2
Thumbnail_Data
280
    15
 91
        0
101
ACDSRECORD
 95
        0
 90
        1
  2
AcDbDs::TreatedAsObjectData
280
     1
291
     1
101
ACDSRECORD
 95
        0
 90
        2
  2
AcDbDs::Legacy
280
     1
291
     1
101
ACDSRECORD
  1
AcDbDs::ID
 90
        3
  2
AcDs:Indexable
280
     1
291
     1
101
ACDSRECORD
  1
AcDbDs::ID
 90
        4
  2
AcDbDs::HandleAttribute
280
     7
282
     1
  0
ACDSSCHEMA
 90
        1
  1
AcDbDs::TreatedAsObjectDataSchema
  2
AcDbDs::TreatedAsObjectData
280
     1
 91
        0
  0
ACDSSCHEMA
 90
        2
  1
AcDbDs::LegacySchema
  2
AcDbDs::Legacy
280
     1
 91
        0
  0
ACDSSCHEMA
 90
        3
  1
AcDbDs::IndexedPropertySchema
  2
AcDs:Indexable
280
     1
 91
        0
  0
ACDSSCHEMA
 90
        4
  1
AcDbDs::HandleAttributeSchema
  2
AcDbDs::HandleAttribute
280
     7
 91
        1
284
     1
  0
ACDSRECORD
 90
        0
  2
AcDbDs::ID
280
    10
320
674
  2
Thumbnail_Data
280
    15
 94
     1623
310
89504E470D0A1A0A0000000D49484452000000B40000010008030000002D3FACD700000300504C5445FFFFFF000000C8C8C80000000000000000000000000000000000000000000000000000330000660000990000CC0000FF0033000033330033660033990033CC0033FF0066000066330066660066990066CC0066FF0099
310
000099330099660099990099CC0099FF00CC0000CC3300CC6600CC9900CCCC00CCFF00FF0000FF3300FF6600FF9900FFCC00FFFF3300003300333300663300993300CC3300FF3333003333333333663333993333CC3333FF3366003366333366663366993366CC3366FF3399003399333399663399993399CC3399FF33CC00
310
33CC3333CC6633CC9933CCCC33CCFF33FF0033FF3333FF6633FF9933FFCC33FFFF6600006600336600666600996600CC6600FF6633006633336633666633996633CC6633FF6666006666336666666666996666CC6666FF6699006699336699666699996699CC6699FF66CC0066CC3366CC6666CC9966CCCC66CCFF66FF0066
310
FF3366FF6666FF9966FFCC66FFFF9900009900339900669900999900CC9900FF9933009933339933669933999933CC9933FF9966009966339966669966999966CC9966FF9999009999339999669999999999CC9999FF99CC0099CC3399CC6699CC9999CCCC99CCFF99FF0099FF3399FF6699FF9999FFCC99FFFFCC0000CC00
310
33CC0066CC0099CC00CCCC00FFCC3300CC3333CC3366CC3399CC33CCCC33FFCC6600CC6633CC6666CC6699CC66CCCC66FFCC9900CC9933CC9966CC9999CC99CCCC99FFCCCC00CCCC33CCCC66CCCC99CCCCCCCCCCFFCCFF00CCFF33CCFF66CCFF99CCFFCCCCFFFFFF0000FF0033FF0066FF0099FF00CCFF00FFFF3300FF3333
310
FF3366FF3399FF33CCFF33FFFF6600FF6633FF6666FF6699FF66CCFF66FFFF9900FF9933FF9966FF9999FF99CCFF99FFFFCC00FFCC33FFCC66FFCC99FFCCCCFFCCFFFFFF00FFFF33FFFF66FFFF99FFFFCCFFFFFF0000000D0D0D1A1A1A2828283535354343435050505D5D5D6B6B6B787878868686939393A1A1A1AEAEAEBB
310
BBBBC9C9C9D6D6D6E4E4E4F1F1F1FFFFFF000000000000000000000000000000000000000000000000000000000000B0E2D235000003124944415478DAEDDD017282301040D1DCC0FB5F6F0FD061EC05AA55946022246CC22EFC9DD65171F4B94D9610230D8120086243889788D05E923BBB21F22DE1A04F8E5ED11F419F1B
310
EDAEE47DCD3468D04EDBF491C61EA0411F6FE76225DFA0ADA203E8B3A3197B80AE9A4230D2AE4173B805DAE380C95D9B06CD6E1C3468D0A04183060D1A3468D0A04183060D1A3468D0A04183060D1A3468D0A00BD172BD85B47B8F023A8D2EFC1EDEB1D15F9FC21E7AC55390E9B3A3A91E67A9D365B9067D12B4CB360D1A74
310
FD2B8306ED1CBDB663DA42AF4CFF0674BE7E4DD1CDCF47B3159D7E851F9121F13AF2E5B8AFDD64CD52A6CBD336DED8199D4C7E882F727F04E9827E09CA32FDF9AEC7F7BA07FAF7F6B310FF0F928F278C0A605DEFAC46FF2EB09F0F79A38747C4CD4315BD54A7E50DCB933FD14A7570133AC79E6C7EA11F693690E9343BDAA8
310
830ECAE8397BB6C92A7A0AFDD890424BAAA874478FD8C4DD33B4CCD05D3F739144E74BDF19A187C12DBAD56EBC51F3B0845EDD11EDA00B4A9E1574D1CEC506BA70373E197E14D4695D74F180A96ECCA489AE1D9A4AEEE8B13DBAF420E0DD3C42195AB14D97FE6D671D711F74186ED7EFBFAF2BA93B407B42A7A631D4D14599
310
3382168FE85CF3781D90B79B16D347DFC31DFA7184081A7406FD68D5DED0E325E8B66871D93CDC74C440C9DB05AD75BAACAEE8A0143974767878BFF087BE96A0A38EA8A6AE40D71F6EB5463739467489D652835EEA885AEACEF31E2ED18378443B9B42F0830E1ED1C51390FBA2DBADCA23D3874107DF250FB4B1362D26D02D
310
6ADECE1DD168A6E9888CF28E88763960BACFF13060A27A80B650F2C421FA59AA55BED5B5F3D209E3E8F4A75B2ED1F6A77A593AD10BCDD2099A07AB1040B374C278477482661502E883AF4270B9DE83A513FDE63D583AB11A6D214083060D1A3468D0A04183060D1A34E834DA4B98C9B4ACBFBB0EADBCFA6B7CF1F4B9F11227
310
D8000D3A42C7E7563D0FBA51F5E88956F9FF00A07BA2EB762EECC67532BD7D94D7F2C4F4B2FE84F1A0DDA25DB6E9CD7B446F996E83EE31F650475FE6E1127D5145FB9B42A8467B1C7B1004B167FC017F3029DFA2EAC6150000000049454E44AE426082
  0
ACDSRECORD
 90
        0
  2
AcDbDs::ID
280
    10
320
22
  2
Thumbnail_Data
280
    15
 94
     1332
310
89504E470D0A1A0A0000000D49484452000001000000007A080300000067627D4700000300504C5445212830000000C8C8C80000000000000000000000000000000000000000000000000000330000660000990000CC0000FF0033000033330033660033990033CC0033FF0066000066330066660066990066CC0066FF0099
310
000099330099660099990099CC0099FF00CC0000CC3300CC6600CC9900CCCC00CCFF00FF0000FF3300FF6600FF9900FFCC00FFFF3300003300333300663300993300CC3300FF3333003333333333663333993333CC3333FF3366003366333366663366993366CC3366FF3399003399333399663399993399CC3399FF33CC00
310
33CC3333CC6633CC9933CCCC33CCFF33FF0033FF3333FF6633FF9933FFCC33FFFF6600006600336600666600996600CC6600FF6633006633336633666633996633CC6633FF6666006666336666666666996666CC6666FF6699006699336699666699996699CC6699FF66CC0066CC3366CC6666CC9966CCCC66CCFF66FF0066
310
FF3366FF6666FF9966FFCC66FFFF9900009900339900669900999900CC9900FF9933009933339933669933999933CC9933FF9966009966339966669966999966CC9966FF9999009999339999669999999999CC9999FF99CC0099CC3399CC6699CC9999CCCC99CCFF99FF0099FF3399FF6699FF9999FFCC99FFFFCC0000CC00
310
33CC0066CC0099CC00CCCC00FFCC3300CC3333CC3366CC3399CC33CCCC33FFCC6600CC6633CC6666CC6699CC66CCCC66FFCC9900CC9933CC9966CC9999CC99CCCC99FFCCCC00CCCC33CCCC66CCCC99CCCCCCCCCCFFCCFF00CCFF33CCFF66CCFF99CCFFCCCCFFFFFF0000FF0033FF0066FF0099FF00CCFF00FFFF3300FF3333
310
FF3366FF3399FF33CCFF33FFFF6600FF6633FF6666FF6699FF66CCFF66FFFF9900FF9933FF9966FF9999FF99CCFF99FFFFCC00FFCC33FFCC66FFCC99FFCCCCFFCCFFFFFF00FFFF33FFFF66FFFF99FFFFCCFFFFFF0000000D0D0D1A1A1A2828283535354343435050505D5D5D6B6B6B787878868686939393A1A1A1AEAEAEBB
310
BBBBC9C9C9D6D6D6E4E4E4F1F1F1FFFFFF000000000000000000000000000000000000000000000000000000000000B21171F6000001EF4944415478DAEDDB6D6E8330108461DFFF989CC04AE4FF252422401CBA7CB48967DE51D4A6548DD847786D909B12218410420EA77CDD07FD57E197CBED944B39E9C44FFB20003E00
310
5056034028DDCEBF53BB0204011200E63D80592056190000E801D8AF040170BE19DA5C0D00006803FC5A5EC300A7E56B4BAD9EA52FC0EB8977DAF5AF5C01D1AA663F3737D853BDAA20401DC209202D4B1703B8F6AF7A86DF3D0172CE324D61DA03EE9556CBBFD6009E6B041D800AC1787C04C82F00AD670AB020981C5D0168
310
FC025800CCAA9E1C7B05A8CD8D1200E3B09F1D5901D01A0263C1CB9FA7001900DD26181A02DA00812698DDA7C10780600F082C84C66940631DBC6F29DC0B74C33C1059073403B0E166E8B916140288DE0EE769170C00245180D5BB6C009A03E8EBEADFE5E195E66FEFDFF6037C3FC47B806041BA0029568F30406D08DC321F
310
020A2BC16D3D000000AC018626600DF0F8C215400F00C01640E581F86E80766B7DBB503706E8AF80CE1DC06708D8F780B39E081577002D81C3CF0401F002280000E006A0B42BF44F9A2000EE00AC03DC015AEF825100D969802B801EC04A108028004D902608002B41FB59A09803DC6742A5FF9D3DBC4FD00C800D126C9363
310
9B1CDBE4D826070000DE00C57C83049BA400000000EF2742EC13649F200F4513218410420821E4A3F9014A92C614A07680F70000000049454E44AE426082
  0
ENDSEC
  0
EOF
